Browse Collections Artists Sources   Search Dates

Add Show    List Management    Help


Phish 08/09/93
The Masonic Temple, Toronto, ON
Comments Add Comment    Source Collectors    Add to Collection    Add to Want List    History
Source # 87288 Other Sources
Entered by Ben Mohr
Checksums all_ffp , all_wav_md5
Disc Counts 2 / 2
Media Size
Date Circulated
Date Added
09/17/2007
09/18/2007
Source Summary AKG 460b/ck63 > custom pre-amp > Teac DA-P20 @48kHz; Tascam DA-20mkII > Tascam HD-P2 > WaveLab 5.01b (48>44.1kHz) > CDWav > FLAC; Taped by Tom McMinn; Transferred by Jason Sobel 
Source Information - Download Text | Download Zip
Phish
August 9, 1993
Concert Hall (Masonic Temple)
Toronto, Ontario, Canada

source:
AKG 460b/ck63 > custom pre-amp > Teac DA-P20 (@ 48 kHz)

transfer:
Tascam DA-20MKII > Tascam HD-P2 > CF card > usb 2.0 > pc > WaveLab 5.01b (de-emphasis, fades, resample to 44.1 kHz, patch) > CD Wave v1.96.1 > FLAC v1.2.0 (Level 8)

FLAC tags added with metaflac v1.2.0

recorded by Tom McMinn
transferred by Jason Sobel ([email protected])
seeded September 18, 2007

notes:
The original DAT recording was made with pre-emphasis.
The Waves Q10 Paragraphic EQ v5.0 plug-in was used to de-emphasize the recording.
The original 48 kHz .wav files from the DAT transfer have been archived, and are available upon request.
Big thanks to Dave Flaschner for letting me borrow his DAT tape!

Disc 1 - [66:16]
Set I
01 - [03:52] - Chalk Dust Torture ->
02 - [00:59] - Who Knows Jam ->
03 - [02:02] - Chalk Dust Torture
04 - [05:50] - Mound
05 - [06:10] - Fee ->
06 - [13:12] - Split Open and Melt ->
07 - [05:58] - Glide *
08 - [02:45] - Nellie Kane
09 - [14:29] - The Divided Sky
10 - [00:51] - Memories
11 - [10:08] - The Squirming Coil

Disc 2 - [73:49]
Set II
01 - [03:54] - Dinner and a Movie >
02 - [13:19] - Tweezer >
03 - [07:13] - Tela ->
04 - [06:45] - My Friend My Friend
05 - [02:21] - My Mind's Got a Mind of its Own
06 - [22:42] - You Enjoy Myself ** ->
07 - [06:28] - Contact
08 - [06:37] - Crimes of the Mind ***
09 - [01:26] - encore break
10 - [03:03] - Rocky Top

* Glide included Simpsons, All Fall Down, and Random Note Signals.
** YEM included Smoke on the Water teases in the jam segment and Psycho Killer in the vocal jam.
*** with the Dude of Life on vocals

tech notes:
there was a drop-out on the DAT during My Friend My Friend from [02:22] to [02:23]
that drop-out was patched with the previously circulated version of the Tom's source:
http://db.etree.org/shn/6767

------------------------------------------------------------------------------------------

SHNtool output:

    length     expanded size   cdr  WAVE problems filename
     3:51.63       40896620    ---   --   ---xx   ph1993-08-09d1t01.flac
     0:58.42       10330028    ---   --   ---xx   ph1993-08-09d1t02.flac
     2:01.63       21492620    ---   --   ---xx   ph1993-08-09d1t03.flac
     5:50.16       61777676    ---   --   ---xx   ph1993-08-09d1t04.flac
     6:10.28       65333900    ---   --   ---xx   ph1993-08-09d1t05.flac
    13:11.68      139692380    ---   --   ---xx   ph1993-08-09d1t06.flac
     5:58.23       63205340    ---   --   ---xx   ph1993-08-09d1t07.flac
     2:45.15       29141324    ---   --   ---xx   ph1993-08-09d1t08.flac
    14:28.53      153239900    ---   --   ---xx   ph1993-08-09d1t09.flac
     0:50.50        8937644    ---   --   ---xx   ph1993-08-09d1t10.flac
    10:08.29      107319452    ---   --   ---xx   ph1993-08-09d1t11.flac
     3:54.19       41322332    ---   --   ---xx   ph1993-08-09d2t01.flac
    13:18.43      140868380    ---   --   ---xx   ph1993-08-09d2t02.flac
     7:13.21       76430636    ---   --   ---xx   ph1993-08-09d2t03.flac
     6:45.08       71460860    ---   --   ---xx   ph1993-08-09d2t04.flac
     2:20.67       24853628    ---   --   ---xx   ph1993-08-09d2t05.flac
    22:42.27      240320348    ---   --   ---xx   ph1993-08-09d2t06.flac
     6:28.04       68452652    ---   --   ---xx   ph1993-08-09d2t07.flac
     6:37.33       70108460    ---   --   ---xx   ph1993-08-09d2t08.flac
     1:26.10       15193964    ---   --   ---xx   ph1993-08-09d2t09.flac
     3:02.69       32267132    ---   --   ---xx   ph1993-08-09d2t10.flac
   140:05.01     1482645276 B                     (totals for 21 files, 0.5470 overall compression ratio)

Show Checksums
all_ffp
ph1993-08-09d1t01.flac:0c6fc496393a2991f24f5ff1ff90482a
ph1993-08-09d1t02.flac:b328324255530f50cfa55644b1bf2351
ph1993-08-09d1t03.flac:9fcc3b5f8f5597c86260ad6d8da8a247
ph1993-08-09d1t04.flac:49fc23bafff6a4660b29e50b81abe391
ph1993-08-09d1t05.flac:e3e1dfbec92a1d21e8d218bbad740817
ph1993-08-09d1t06.flac:042249b7fcd914475b8706ee6b0ea13e
ph1993-08-09d1t07.flac:952881b28894f4bb50b9753b4e122f7c
ph1993-08-09d1t08.flac:6e07d05f0d705139075ec2221379ecfb
ph1993-08-09d1t09.flac:301b7600c542a7af20347579a014aa72
ph1993-08-09d1t10.flac:a124ea28f59a4cdce1f8acc4cac50f3f
ph1993-08-09d1t11.flac:b2ac9f2fb780c655bd4825dee1f7a050
ph1993-08-09d2t01.flac:765bcf538cca863b8355c92e1d2aa55c
ph1993-08-09d2t02.flac:a514f9ddecf08591a1e3e96ed46b22d6
ph1993-08-09d2t03.flac:9f3ce064c0a117b031c566334e7b2af0
ph1993-08-09d2t04.flac:a2210311a9a439ee4c584204f8484565
ph1993-08-09d2t05.flac:8d9f89c6a4dda3b2b44a1a97cd375a13
ph1993-08-09d2t06.flac:8a9308f5c86a620b78c479f05210d40c
ph1993-08-09d2t07.flac:fb36aebd55417fe0d703bf61aaee1c94
ph1993-08-09d2t08.flac:8836af8c451b044b035c19fd877562da
ph1993-08-09d2t09.flac:542a11071c350cefdfcb617f12e383dc
ph1993-08-09d2t10.flac:50714e0b337403a246433dea960229f4
all_wav_md5
d41c149876d86567e7f1eb4aeadf0568 *ph1993-08-09d1t01.wav
273469c1f9ae404481a981437dadbf49 *ph1993-08-09d1t02.wav
b26e0d8a456801b80c614b7f6c0ad919 *ph1993-08-09d1t03.wav
2d2619f629732a8b59ed797fa25dada9 *ph1993-08-09d1t04.wav
c889280082dc2257be55a8358d64c064 *ph1993-08-09d1t05.wav
d48110b59757bf131ea7f39872c5ad7a *ph1993-08-09d1t06.wav
fbf1e4292e56fbb77bd085545bc2d59b *ph1993-08-09d1t07.wav
b46c99d769388bb492141c58d1fc1e23 *ph1993-08-09d1t08.wav
e8521c5af94c28020ab13cdda9fd1507 *ph1993-08-09d1t09.wav
7243c2516ceb8e654777ed9fa411e25b *ph1993-08-09d1t10.wav
c27e8f23abecf22b7018db946ba54872 *ph1993-08-09d1t11.wav
6271bed2d7e2f6ad4993ffb4c8c1c491 *ph1993-08-09d2t01.wav
fe8b9fc7c1e38b27b281d1c381a49f9d *ph1993-08-09d2t02.wav
e984f254e278b75a356c709bbbc2de19 *ph1993-08-09d2t03.wav
e04305e58556ec7b15e0fbf45747275a *ph1993-08-09d2t04.wav
0c2cbcca25050e7b5145fb6138111861 *ph1993-08-09d2t05.wav
22564008043fd310841e49e02025c597 *ph1993-08-09d2t06.wav
6760e8eadd7aac08e5eb8a07bfae0b40 *ph1993-08-09d2t07.wav
ba94075de6d282e4d543ee823c58b21d *ph1993-08-09d2t08.wav
1134052f488ab3f5ae66d20eeac84358 *ph1993-08-09d2t09.wav
ded4ab75f8436843070e39a1c8032f4d *ph1993-08-09d2t10.wav

Comments
Add Comment
Other Sources (comments)
AKG460/ck61> AKG PS> Teac... (0) AKG 460b > Custom Preamp >... (4) AKG 460/ck63 > Oade Custom... (0) flac16, 48kHz; (FOB)... (0)
Date User Comment