Browse Collections Artists Sources   Search Dates

Add Show    List Management    Help


Grateful Dead 08/21/93
Autzen Stadium, University of Oregon, Eugene, OR
Comments Add Comment    Source Collectors    Add to Collection    Add to Want List    History
Source # 87291 Other Sources
Entered by Matt Vernon
Checksums ffp , flac-md5
Disc Counts 2 / 2
Media Size
Date Circulated
Date Added
09/18/2007
09/18/2007
Source Summary flac16; FOB Schoeps Omnis Mk2 Omni Capsules (the two mic stands were “human” – capsules were in hat and the “stands” were 10’ apart) -> Schoeps Active Cables -> Schoeps CMC 3 Mic Body -> Monster M1000 Jumper -> Oade Supply -> Canare Cable -> Panasonic sv255 DAT > TASCAM DA-20 > M-Audio Audiophile 192 > Soundforge 8.0 wav 
  Archive
Source Information - Download Text | Download Zip
Grateful Dead
8-21-1993
Autzen Stadium
Eugene, Oregon  
Digital FOB DFC Audience  

FOB Schoeps Omnis
Mk2 Omni Capsules (the two mic stands were �human� � capsules were in hat and the �stands� were 10� apart) -> Schoeps Active Cables -> Schoeps CMC 3 Mic Body ->  Monster M1000 Jumper -> Oade Supply -> Canare Cable -> Panasonic sv255  

DAT Clone from Dat Master from collection of Todd Evans [email protected] DAT > TASCAM DA-20 > M-Audio Audiophile 192 > Soundforge 8.0 wav.  Transferred May 2006

Edited and Mastered By Jamie Waddell on the GEMS Edit Station September 2007

-First audience recording in digital circulation. And a mighty fine one at that.
-Both GMLSG and Smokestack Lightnin' timed at 5:33.  Just strange.
-Emotional version of Standing on the Moon.
-fits on two 80 minute CD-Rs

           **GEMS**   www.shnflac.net

Set 1:
d1t01. Crowd
d1t02. Here Comes Sunshine
d1t03. Walkin' Blues
d1t04. Lazy River Road
d1t05. Queen Jane Approximately
d1t06. Bird Song
d1t07. Promised Land

Set 2:
d1t08. Crowd
d1t09. China Cat Sunflower
d1t10. I Know You Rider
d1t11. Way To Go Home
d2t01. *Truckin'
d2t02. *Good Mornin' Little Schoolgirl
d2t03. *Smokestack Lightnin'
d2t04. Drumz
d2t05. Space
d2t06. *The Last Time
d2t07. Standing on the Moon
d2t08. Saturday Night
d2t09. Crowd

Encore:
d210. I Fought the Law

*w/Huey Lewis on harmonica

    length     expanded size   cdr  WAVE problems filename
     1:45.61       18665516    ---   --   ---xx   gd1993-08-21.GEMS.d1t01.flac
     6:52.00       72676844    ---   --   ---xx   gd1993-08-21.GEMS.d1t02.flac
     8:21.12       88404668    ---   --   ---xx   gd1993-08-21.GEMS.d1t03.flac
     7:41.29       81388652    ---   --   ---xx   gd1993-08-21.GEMS.d1t04.flac
     7:04.60       74934764    ---   --   ---xx   gd1993-08-21.GEMS.d1t05.flac
    14:52.51      157468796    ---   --   ---xx   gd1993-08-21.GEMS.d1t06.flac
     5:06.18       54020780    ---   --   ---xx   gd1993-08-21.GEMS.d1t07.flac
     1:41.52       17938748    ---   --   ---xx   gd1993-08-21.GEMS.d1t08.flac
     8:10.26       86497196    ---   --   ---xx   gd1993-08-21.GEMS.d1t09.flac
     6:06.35       64644764    ---   --   ---xx   gd1993-08-21.GEMS.d1t10.flac
     6:51.61       72643916    ---   --   ---xx   gd1993-08-21.GEMS.d1t11.flac
     6:53.57       72987308    ---   --   ---xx   gd1993-08-21.GEMS.d2t01.flac
     5:33.16       58778876    ---   --   ---xx   gd1993-08-21.GEMS.d2t02.flac
     5:32.53       58689500    ---   --   ---xx   gd1993-08-21.GEMS.d2t03.flac
    20:11.11      213646316    ---   --   ---xx   gd1993-08-21.GEMS.d2t04.flac
     8:30.57       90098108    ---   --   ---xx   gd1993-08-21.GEMS.d2t05.flac
     6:26.42       68189228    ---   --   ---xx   gd1993-08-21.GEMS.d2t06.flac
     9:23.06       99327356    ---   --   ---xx   gd1993-08-21.GEMS.d2t07.flac
     4:59.46       52851836    ---   --   ---xx   gd1993-08-21.GEMS.d2t08.flac
     2:45.43       29207180    ---   --   ---xx   gd1993-08-21.GEMS.d2t09.flac
     3:34.16       37787276    ---   --   ---xx   gd1993-08-21.GEMS.d2t10.flac
   148:25.02     1570847628 B                     (totals for 21 files, 0.5984 overall compression ratio)

Show Checksums
ffp
gd1993-08-21.GEMS.d1t01.flac:17ab743a27bfb205315dc373abc2766c
gd1993-08-21.GEMS.d1t02.flac:e1239b544f6f13b0adb486a93ecb9523
gd1993-08-21.GEMS.d1t03.flac:7c44135961f514f6342bfd4445ee5150
gd1993-08-21.GEMS.d1t04.flac:6746f8227a40af135ca1d6b55cf514e8
gd1993-08-21.GEMS.d1t05.flac:9d7600960efe946e30eb9a958595fbd7
gd1993-08-21.GEMS.d1t06.flac:e0d56edda60328903f1ca1cc4dba1e2b
gd1993-08-21.GEMS.d1t07.flac:292708b174115858a9cccb3f6edc1c89
gd1993-08-21.GEMS.d1t08.flac:19b0973e9b2a304b885448b0488e30e2
gd1993-08-21.GEMS.d1t09.flac:966a06f79fdf244c281ecc86524f5130
gd1993-08-21.GEMS.d1t10.flac:114365ace4a7f0fe61a4fe9815f62f45
gd1993-08-21.GEMS.d1t11.flac:45a3740c5a55378eff64e504ea8d1282
gd1993-08-21.GEMS.d2t01.flac:b19d83c5de691ad007bf9e89aedd6d72
gd1993-08-21.GEMS.d2t02.flac:7211f60dc4cee5a654e42f43d34fdc11
gd1993-08-21.GEMS.d2t03.flac:dd7aef5c3496c6c9a7375e05d8570b20
gd1993-08-21.GEMS.d2t04.flac:52e17ed1700dadb5cc131335bf81c37c
gd1993-08-21.GEMS.d2t05.flac:cf2d5e3b31cc27e2d6764ecd9b7cdc41
gd1993-08-21.GEMS.d2t06.flac:ea488ec23ea7ed986d5cdaee0fe9f762
gd1993-08-21.GEMS.d2t07.flac:00faee18e627a484bc28880e78c4f823
gd1993-08-21.GEMS.d2t08.flac:892cbb0c87c1d7eb92f58bf5ddf9000d
gd1993-08-21.GEMS.d2t09.flac:1727e074d9366251f922f38e0ce4aa90
gd1993-08-21.GEMS.d2t10.flac:c919e8b8375ce3f1c1307a1c911af0f8
flac-md5
825314a18a6221e5153cda3430194086 *gd1993-08-21.gems.d1t01.flac
160be9f27429c048663ac288afbc950e *gd1993-08-21.gems.d1t02.flac
8974cf7eb037d74792ec9bf2894a015a *gd1993-08-21.gems.d1t03.flac
2243f22671da578e1e4bc290ccce7ccd *gd1993-08-21.gems.d1t04.flac
205fedca07d164b9ffca66c1c1c65165 *gd1993-08-21.gems.d1t05.flac
19eed93bfa21fa3fee361ec9c7ad1ebb *gd1993-08-21.gems.d1t06.flac
277e9d358be1bf98f48cfdd071c25b6d *gd1993-08-21.gems.d1t07.flac
17ba9c32225625172ee280785e71b489 *gd1993-08-21.gems.d1t08.flac
360ffc92e9343442311417d3fd500026 *gd1993-08-21.gems.d1t09.flac
2b0c4b2768f2e5aec9537b7a5b1511d1 *gd1993-08-21.gems.d1t10.flac
10e4e45a5bf0a2f2fde7802617be9bf6 *gd1993-08-21.gems.d1t11.flac
721b44e8c9ac1409ffdd4268591962d8 *gd1993-08-21.gems.d2t01.flac
0032bf8a4ad0e344d5b0f936ebd875ab *gd1993-08-21.gems.d2t02.flac
03ac06671919bf9bcb30a35a165f5afc *gd1993-08-21.gems.d2t03.flac
b42ed0044ce584e5b0fffb68f2465f5d *gd1993-08-21.gems.d2t04.flac
cce5767b16038c01d6b0c683a44c59ef *gd1993-08-21.gems.d2t05.flac
f87e81965532bfb9f7fd706506e5b899 *gd1993-08-21.gems.d2t06.flac
a002e950913c5fd4b8d1543b49326f48 *gd1993-08-21.gems.d2t07.flac
610cdaea4647c14eb11c41545801acef *gd1993-08-21.gems.d2t08.flac
02064e74b2a7013aa0615144624c3915 *gd1993-08-21.gems.d2t09.flac
425baf661c48526e2d86420a23886da8 *gd1993-08-21.gems.d2t10.flac

Comments
Add Comment
Other Sources (comments)
SBD> DAT> CD> EAC> Cool... (0) SBD > Pre-FM RTR > ? >... (4) Source: SBD > DAT > CDR >... (0) flac16; Source: FM... (0) flac16; Source: 2... (0) flac16/48kHz;... (0) flac16/48kHz; John... (0)
Date User Comment