Browse Collections Artists Sources   Search Dates

Add Show    List Management    Help


Grateful Dead 03/25/90
Knickerbocker Arena, Albany, NY
Comments Add Comment    Source Collectors    Add to Collection    Add to Want List    History
Source # 87347 Other Sources
Entered by Gary Field
Checksums ffp , flac-md5
Disc Counts 2 / 3
Media Size
Date Circulated
Date Added
09/21/2007
09/21/2007
Source Summary flac16; SBD -> Dat -> Cassette Master (TDK MA-R90); Transfer Info: Cassette Master (Nakamichi DR-1) -> Apogee MiniMe (24bit/48k) -> Samplitude Professional v9.11 -> FLAC/16; All Transfers And Mastering By Charlie Miller; Upgrade in circulation 
  Archive
Source Information - Download Text | Download Zip
Grateful Dead - March 25, 1990
Knickerbocker Arena - Albany, NY

Recording Info:
SBD -> Dat -> Cassette Master (TDK MA-R90)

Transfer Info:
Cassette Master (Nakamichi DR-1) -> Apogee MiniMe (24bit/48k) ->
Samplitude Professional v9.11 -> FLAC/16
(3 Discs Audio / 2 Discs FLAC)

All Transfers And Mastering By Charlie Miller
[email protected]
September 21, 2007

Patch Info:
(FOB) Schoeps CMC4/MK21 -> Oade Cap Coupled Supply -> Dat supplies:
Drums (5:14 - 5:31)

Notes:
-- Set 2 is seamless
-- This is from a custom live recording mix by John Cutler
-- Thanks to Steve Marcus for the tapes
-- Mind Left Body tease after Spoonful

Set 1:
d1t01 - Greatest Story Ever Told ->
d1t02 - Touch Of Grey
d1t03 - Wang Dang Doodle
d1t04 - Never Trust A Woman
d1t05 - Jack-A-Roe
d1t06 - When I Paint My Masterpiece
d1t07 - Bird Song
d1t08 - Let It Grow

Set 2:
d2t01 - Eyes Of The World ->
d2t02 - Samson And Delilah
d2t03 - Crazy Fingers ->
d2t04 - Truckin' ->
d2t05 - Spoonful ->
d2t06 - Drums ->
d3t01 - Space ->
d3t02 - I Will Take You Home ->
d3t03 - Goin' Down The Road Feeling Bad ->
d3t04 - Black Peter ->
d3t05 - Around And Around

Encore:
d3t06 - The Mighty Quinn (Quinn The Eskimo)


SHNTOOL OUTPUT:
    length     expanded size   cdr  WAVE problems filename
     4:02.37       42775868    ---   --   -----   gd90-03-25d1t01.wav
     6:25.58       68050460    ---   --   -----   gd90-03-25d1t02.wav
     7:23.00       78145244    ---   --   -----   gd90-03-25d1t03.wav
     7:18.39       77354972    ---   --   -----   gd90-03-25d1t04.wav
     4:20.71       46031036    ---   --   -----   gd90-03-25d1t05.wav
     5:01.63       53244620    ---   --   -----   gd90-03-25d1t06.wav
    13:12.24      139765292    ---   --   -----   gd90-03-25d1t07.wav
    11:58.26      126716396    ---   --   -----   gd90-03-25d1t08.wav
    13:19.38      141033020    ---   --   -----   gd90-03-25d2t01.wav
     7:51.21       83133836    ---   --   -----   gd90-03-25d2t02.wav
     7:24.72       78490988    ---   --   -----   gd90-03-25d2t03.wav
     7:37.51       80734796    ---   --   -----   gd90-03-25d2t04.wav
     5:48.15       61422524    ---   --   -----   gd90-03-25d2t05.wav
    10:03.73      106540940    ---   --   -----   gd90-03-25d2t06.wav
     8:46.15       92821724    ---   --   -----   gd90-03-25d3t01.wav
     4:17.35       45417164    ---   --   -----   gd90-03-25d3t02.wav
     7:01.28       74330300    ---   --   -----   gd90-03-25d3t03.wav
     9:21.30       99031004    ---   --   -----   gd90-03-25d3t04.wav
     6:28.21       68492636    ---   --   -----   gd90-03-25d3t05.wav
     4:49.19       51024332    ---   --   -----   gd90-03-25d3t06.wav
   152:32.61     1614557152 B                     (totals for 20 files)

Show Checksums
ffp
gd90-03-25d1t01.flac:22168739b8890cfcb91e25240aceaf4b
gd90-03-25d1t02.flac:03608e338435f4d551c57cee706e8f10
gd90-03-25d1t03.flac:02d92af4e9be2f9bdaf8a2f00dc7a649
gd90-03-25d1t04.flac:35afec32b6fe22862655462f5d9ade93
gd90-03-25d1t05.flac:e789ee3b4370879ec2f3b33aa173c980
gd90-03-25d1t06.flac:fc8caca8162faa6dd0f15a5b1bd4c536
gd90-03-25d1t07.flac:42dd1a0dcb513d848e455a17d16ce348
gd90-03-25d1t08.flac:efd6bc5deb912a4c9c9978af5951bd26
gd90-03-25d2t01.flac:c21c338bbc9ecb16eb64d26cbdc8379e
gd90-03-25d2t02.flac:ad60c28f5f32cfcf88163a929f11ae71
gd90-03-25d2t03.flac:4fd92497f312a27c832d842b33bed4b2
gd90-03-25d2t04.flac:806e56d1df759a0255b3be35829f3033
gd90-03-25d2t05.flac:c7ccb39f73978200ae958b8c0c28caef
gd90-03-25d2t06.flac:0924840062c6d371d140212deb3fd19d
gd90-03-25d3t01.flac:daedacc39612f11182e4e46a173874a7
gd90-03-25d3t02.flac:3dff20669a3b589f3bb5d2a29e898837
gd90-03-25d3t03.flac:b199354f202f1ee80243434b64c29fd5
gd90-03-25d3t04.flac:fb2565cbe50c74eb786aa4473da6c9d6
gd90-03-25d3t05.flac:0854b99180d60bb42efdc5480388b3d8
gd90-03-25d3t06.flac:b90b06a1db1590944cba8c01e821bc79
flac-md5
3e7ce243d4bc1eac4bc7973433f6c687 *gd90-03-25d1t01.flac
743fef9c5d3eb7c805dbb8aa8b3d3efc *gd90-03-25d1t02.flac
0833ff6c094c997919fffbac133c5f05 *gd90-03-25d1t03.flac
926a73686be42b424c1589299f0d9d4e *gd90-03-25d1t04.flac
20e697a256179de0063be295a9ec8a03 *gd90-03-25d1t05.flac
4312d3f1213d53c9d6ae65a08ad1307e *gd90-03-25d1t06.flac
c65f771c8bddb3af57b4d2ce1a0a410d *gd90-03-25d1t07.flac
0e4a0f5916b2f99af56b6eada4df7860 *gd90-03-25d1t08.flac
d3270494563e35e04cf1f6075301cda7 *gd90-03-25d2t01.flac
bec4e654757a87a77601791ed5d207b2 *gd90-03-25d2t02.flac
2e69c60dd2651d194dc178a40580c150 *gd90-03-25d2t03.flac
a3a8ab8385c4846d7b494a4741187860 *gd90-03-25d2t04.flac
e1a997b7e278a1e9049ee1498b2ec2ab *gd90-03-25d2t05.flac
7986b8397c5d5d7f3cb70ce87f200bb4 *gd90-03-25d2t06.flac
6269082543b127208012d0be25cc4205 *gd90-03-25d3t01.flac
eb0192e1058d27e1d29691477e245f4f *gd90-03-25d3t02.flac
5354d58552fbd25c2c4beb3c85fbd41c *gd90-03-25d3t03.flac
9d5161d2c7177e013fd023893e28cc2e *gd90-03-25d3t04.flac
bb05493e7e4f28a2a7f4f988fa57df41 *gd90-03-25d3t05.flac
76661c3018e39e8424f8cfc316f7d1eb *gd90-03-25d3t06.flac

Comments
Add Comment
Other Sources (comments)
SBD cass master > DAT > SHN... (0) SBD>24 Track... (1) 24 track SBD MR> Healy 2... (3) FOB Schoeps CMC4/MK21> Oade... (0) flac16; Sennheiser... (0) flac16; AUD:... (0) flac24; Recorded By... (0) flac16; Recorded By... (0) flac16; Recorded By... (0) flac24; Recorded By... (0) flac16; 2 Source... (0) flac16/48kHz;... (0) flac16; Source: AKG... (0) flac16; Recording... (0) flac16; Recording... (0) flac16/48kHz; Master... (0) flac16/48kHz; Ted... (0)
Date User Comment