Browse Collections Artists Sources   Search Dates

Add Show    List Management    Help


Grateful Dead 12/09/81
Events Center, U of Colorado, Boulder, CO
Comments Add Comment    Source Collectors    Add to Collection    Add to Want List    History
Source # 87349 Other Sources
Entered by Matt Vernon
Checksums ffp , flac-md5
Disc Counts 2 / 3
Media Size
Date Circulated
Date Added
09/21/2007
09/21/2007
Source Summary flac16; SBD -> Master Reel (7 inch Reel @ 7.5ips 1/2trk) -> Dat -> CD Transfer Info: CD -> Samplitude Professional v9.11 -> FLAC All Transfers and Mastering By Charlie Miller 
  Archive
Source Information - Download Text | Download Zip
Grateful Dead - December 9, 1981
Events Center - Boulder, CO
University of Colorado

Recording Info:
SBD -> Master Reel (7 inch Reel @ 7.5ips 1/2trk) -> Dat -> CD

Transfer Info:
CD -> Samplitude Professional v9.11 -> FLAC
(3 Discs Audio / 2 Discs FLAC)

All Transfers and Mastering By Charlie Miller
[email protected]
September 21, 2007

Patch Info:
Sennheiser 421 -> Master Cassette -> CD (By Jim Wise) supplies:
Bird Song (last 8 seconds - post song tuning)
Mama Tried (complete song)
Mexicali Blues (0:00 - 1:38)
Scarlet Begonias (6:20 - 7:35)
Space (4:52 - end of track)
The Other One (0:00 - 4:19)

Notes:
-- All disc changes are seamless
-- I cleaned up many flaws and fixed the patches

Set 1:
d1t01 - Cold Rain And Snow
d1t02 - Jack Straw
d1t03 - Friend Of The Devil ->
d1t04 - Little Red Rooster
d1t05 - Bird Song
d1t06 - Mama Tried ->
d1t07 - Mexicali Blues
d1t08 - Candyman
d1t09 - Cassidy
d2t01 - Looks Like Rain ->
d2t02 - China Cat Sunflower ->
d2t03 - I Know You Rider

Set 2:
d2t04 - Tuning
d2t05 - Scarlet Begonias ->
d2t06 - Fire On The Mountain
d2t07 - Estimated Prophet ->
d2t08 - He's Gone ->
d2t09 - Drums ->
d3t01 - Space ->
d3t02 - The Other One ->
d3t03 - Stella Blue ->
d3t04 - Around And Around ->
d3t05 - Good Lovin'

Encore:
d3t06 - U.S. Blues ->
d3t07 - Satisfaction


SHNTOOL OUTPUT:
    length     expanded size   cdr  WAVE problems filename
     6:52.30       72747404    ---   --   -----   gd81-12-09d1t01.wav
     6:31.22       69024188    ---   --   -----   gd81-12-09d1t02.wav
     8:19.43       88124780    ---   --   -----   gd81-12-09d1t03.wav
     9:39.04      102145052    ---   --   -----   gd81-12-09d1t04.wav
     9:10.45       97125884    ---   --   -----   gd81-12-09d1t05.wav
     2:26.04       25763852    ---   --   -----   gd81-12-09d1t06.wav
     5:16.55       55871804    ---   --   -----   gd81-12-09d1t07.wav
     6:14.11       65999516    ---   --   -----   gd81-12-09d1t08.wav
     6:15.55       66279404    ---   --   -----   gd81-12-09d1t09.wav
     8:21.16       88414076    ---   --   -----   gd81-12-09d2t01.wav
     6:15.21       66199436    ---   --   -----   gd81-12-09d2t02.wav
     6:01.15       63715724    ---   --   -----   gd81-12-09d2t03.wav
     0:47.13        8321420    ---   --   -----   gd81-12-09d2t04.wav
    10:19.48      109304540    ---   --   -----   gd81-12-09d2t05.wav
     8:49.27       93379148    ---   --   -----   gd81-12-09d2t06.wav
    10:23.46      110005436    ---   --   -----   gd81-12-09d2t07.wav
    15:01.59      159075212    ---   --   -----   gd81-12-09d2t08.wav
     6:13.47       65907788    ---   --   -----   gd81-12-09d2t09.wav
     9:21.71       99127436    ---   --   -----   gd81-12-09d3t01.wav
     7:45.41       82122476    ---   --   -----   gd81-12-09d3t02.wav
     9:31.65      100877324    ---   --   -----   gd81-12-09d3t03.wav
     3:40.58       38944460    ---   --   -----   gd81-12-09d3t04.wav
     8:56.12       94578668    ---   --   -----   gd81-12-09d3t05.wav
     4:59.66       52898876    ---   --   -----   gd81-12-09d3t06.wav
     6:31.66       69127676    ---   --   -----   gd81-12-09d3t07.wav
   183:46.40     1945081580 B                     (totals for 25 files)
Show Checksums
ffp
gd81-12-09d1t01.flac:979ce25c179dbaeded450bbdfc301854
gd81-12-09d1t02.flac:03927504564809955188fa4b3062b036
gd81-12-09d1t03.flac:617d4717b25594ba820ff74cdbe7fb1e
gd81-12-09d1t04.flac:6031ba509d22976d12a52fe4e0a19d38
gd81-12-09d1t05.flac:0335c5b0e83e63d53506a0f856a2f848
gd81-12-09d1t06.flac:43b74c3c9714f2d2f345dca92c5f278a
gd81-12-09d1t07.flac:1b6001f5b2dd8e04d047e512095dffc2
gd81-12-09d1t08.flac:ae13d73d4816ceb9397db0c3fe82fa75
gd81-12-09d1t09.flac:e309d8485a4a7c6bc3b2a1a3779f490e
gd81-12-09d2t01.flac:942020a7d47c88f057871690c0165e76
gd81-12-09d2t02.flac:cb3e70d4688c9be0dd108ea46d192fc6
gd81-12-09d2t03.flac:bfb812436bc124a381a1f8daad75c5cb
gd81-12-09d2t04.flac:902bbfbf457f6c27f2c08c954e20fc4a
gd81-12-09d2t05.flac:5549f6e28ea9598f22b171e4e990cb78
gd81-12-09d2t06.flac:ce8b8c00009f4e6e099101e3125f7d22
gd81-12-09d2t07.flac:82a1bd04920fe9706d4ff8675166bb05
gd81-12-09d2t08.flac:5166d6ff40d1a2bf836be38a3997731c
gd81-12-09d2t09.flac:72e42910b569ecba4a58774b76568143
gd81-12-09d3t01.flac:7e6db563700661511717ae8eea6c6b1e
gd81-12-09d3t02.flac:dd3633fa6df423276c6da8fcebc4b95b
gd81-12-09d3t03.flac:fa25077e54718c189a72781a91e1189c
gd81-12-09d3t04.flac:b90cb3667e86acf98f6419d0f7935b59
gd81-12-09d3t05.flac:7cbd92dbf11835118895ffa2063a9c6a
gd81-12-09d3t06.flac:51e894604639b6ea14a317f095ad3cf9
gd81-12-09d3t07.flac:6e4209ae844e7348549efc854d97f88f
flac-md5
06695e2ed9fa6a9a070cbeaf9e6b52de *gd81-12-09d1t01.flac
9572aff434a6ed4beb1c62dfaf1c6d8b *gd81-12-09d1t02.flac
46414f370514c07a9de44aec4aab2dc6 *gd81-12-09d1t03.flac
c5eff6d72732df5b8ad20da27cbfdce3 *gd81-12-09d1t04.flac
77dce872c60ae1b9bc6f1e4c032b28cc *gd81-12-09d1t05.flac
a0527b39c42217eeeac93318bc8597bf *gd81-12-09d1t06.flac
0677e513bc2d3d97934f7758397a571f *gd81-12-09d1t07.flac
5721b1f113ddc7b1d73e06f94623ce4d *gd81-12-09d1t08.flac
84a4fccdfadac98d743d9b813e79a72f *gd81-12-09d1t09.flac
19564a17f144ebc185358e53ca402e6e *gd81-12-09d2t01.flac
5c77027dce4afc01c59dfd4450ace07b *gd81-12-09d2t02.flac
de14ce773de97aef7b9977e24291cfec *gd81-12-09d2t03.flac
9cb2700b6a64e2c2618627b82710b6e5 *gd81-12-09d2t04.flac
471d1decd83dcbe0ae5f7860da01593e *gd81-12-09d2t05.flac
53fe36f38ef513427b8047cb94702e2d *gd81-12-09d2t06.flac
a05a1f45b73b0288b9843b757541b24c *gd81-12-09d2t07.flac
53bca8e60f090cc4726914a9d8887cea *gd81-12-09d2t08.flac
683c17071c34427e377ab1c6ab8da7a6 *gd81-12-09d2t09.flac
bd33cd7e47f5175cf350301f06568e2d *gd81-12-09d3t01.flac
59703491fbd556b64afadb5a0458f9f6 *gd81-12-09d3t02.flac
8ab07905581b369a54f9e7afdb33c1cd *gd81-12-09d3t03.flac
6380f1e12a56ef5876f606adcdb2be1b *gd81-12-09d3t04.flac
69aea792da436a438b6234c1a7306c5f *gd81-12-09d3t05.flac
db45a789d440ff5dc95894db92e6bb75 *gd81-12-09d3t06.flac
45d961cb418c54316459599fcd86fb6e *gd81-12-09d3t07.flac

Comments
Add Comment
Other Sources (comments)
SBD Unknown Analog Master>... (1) SBD>Rm>Dat>CD, with... (5) Master Soundboard Cassette... (1) flac16; Recording by... (0)
Date User Comment