Browse Collections Artists Sources   Search Dates

Add Show    List Management    Help


Grateful Dead 07/27/73
Grand Prix Racecourse, Watkins Glen, NY
Comments Add Comment    Source Collectors    Add to Collection    Add to Want List    History
Source # 87464 Other Sources
Entered by Matt Vernon
Checksums ffp , flac-md5
Disc Counts 1 / 2
Media Size
Date Circulated
Date Added
09/26/2007
09/26/2007
Source Summary flac16; source: aud (unknown gen) > ??? > wav > flac; remaster of shn id 28882 
  Archive
Source Information - Download Text | Download Zip
Grateful Dead
Grand Prix Racecourse
Watkins Glen, NY
07/27/1973
Soundcheck

source: aud (unknown gen) > ??? > wav > flac



Disc 1
set I

01   Promised Land
02   Sugaree
03   tuning
04   Mexicali Blues
05   tuning
06   Bird Song
05   Big River
06   Tennessee Jed
07   Merry-Go-Round Broke Down tuning

Disc 2

01   tuning "This is still a test"
02   Mississippi Half-Step Uptown Toodleoo
03   Me and My Uncle
04   Jam >
05   Wharf Rat
06   Around and Around
07   chat


notes:

This is a remaster of shnid 28882

- dc offset removed and all tracks have been pitch corrected
- a number of small dropouts have been repaired
- d1t01, patched with shnid 26363, first 2.3 seconds
- d1t04, patched with shnid 26363, 2:40-2:41
- d1t06, patched with shnid 27779, 11:02-11:37
- d1t08, patched with shnid 25509, 7:38-7:49
- d2t03, patched with shnid 25509, first 12 seconds
- d2t05, patched with shnid 25509, 6:33-7:02


remastered with iZotope Ozone and Waves Z-Noise

editing and remastering
SIRMick
September 20007


shntool output:

    length     expanded size   cdr  WAVE problems filename
     3:20.49       35395292    ---   --   ---xx   gd1973-07-27d1t01.flac
     7:59.20       84542684    ---   --   ---xx   gd1973-07-27d1t02.flac
     0:55.21        9751436    ---   --   ---xx   gd1973-07-27d1t03.flac
     3:45.27       39753548    ---   --   ---xx   gd1973-07-27d1t04.flac
     2:15.35       23896364    ---   --   ---xx   gd1973-07-27d1t05.flac
    16:02.74      169870892    ---   --   ---xx   gd1973-07-27d1t06.flac
     5:02.35       53355164    ---   --   ---xx   gd1973-07-27d1t07.flac
     8:14.22       87193388    ---   --   ---xx   gd1973-07-27d1t08.flac
     1:06.00       11642444    ---   --   ---xx   gd1973-07-27d1t09.flac
     0:30.11        5317916    ---   --   ---xx   gd1973-07-27d2t01.flac
     7:46.49       82317692    ---   --   ---xx   gd1973-07-27d2t02.flac
     3:10.13       33546620    ---   --   ---xx   gd1973-07-27d2t03.flac
    21:06.10      223345964    ---   --   ---xx   gd1973-07-27d2t04.flac
    10:12.07      107973308    ---   --   ---xx   gd1973-07-27d2t05.flac
     5:07.74       54328892    ---   --   ---xx   gd1973-07-27d2t06.flac
     1:54.40       20203724    ---   --   ---xx   gd1973-07-27d2t07.flac
    98:29.37     1042435328 B                     (totals for 16 files, 0.5183 overall compression ratio)


flac fingerprints:

gd1973-07-27d1t01.flac:4604935782d31c9a8a65f9975bb484d4
gd1973-07-27d1t02.flac:019c0e959c1ff0ac43fc67cc8155968f
gd1973-07-27d1t03.flac:c28d82ac3aaeedcbd79a484cd1bc3c7c
gd1973-07-27d1t04.flac:eacd05ec5a78daeb2ad669d864ac403e
gd1973-07-27d1t05.flac:ed55421772eeee20f7d052155c370724
gd1973-07-27d1t06.flac:3105ead9a5a3f653dc665c6dc62ad24e
gd1973-07-27d1t07.flac:ad1f562dca462601d363dd357a7ea1a8
gd1973-07-27d1t08.flac:49814cc6dd2514b75d8f3584d1fa260d
gd1973-07-27d1t09.flac:b580e63437075c2d272dd7ed88bb8bb7
gd1973-07-27d2t01.flac:7a4dabcbbab728f6869ca69bb04ab29b
gd1973-07-27d2t02.flac:9b26b23b4c2629011816a6f70c52061e
gd1973-07-27d2t03.flac:e179c71ace7e49c85efc3c37fbafc7a1
gd1973-07-27d2t04.flac:4c51be9df08b41f2d52b1c5a874f8aec
gd1973-07-27d2t05.flac:a6a3524cc3a4fa81732ab0dcc5829f59
gd1973-07-27d2t06.flac:df8109a88154c1dfba28ff7d14b14f23
gd1973-07-27d2t07.flac:cba6ca0e02cbcd63841f80daf1dca392





Show Checksums
ffp
gd1973-07-27d1t01.flac:4604935782d31c9a8a65f9975bb484d4
gd1973-07-27d1t02.flac:019c0e959c1ff0ac43fc67cc8155968f
gd1973-07-27d1t03.flac:c28d82ac3aaeedcbd79a484cd1bc3c7c
gd1973-07-27d1t04.flac:eacd05ec5a78daeb2ad669d864ac403e
gd1973-07-27d1t05.flac:ed55421772eeee20f7d052155c370724
gd1973-07-27d1t06.flac:3105ead9a5a3f653dc665c6dc62ad24e
gd1973-07-27d1t07.flac:ad1f562dca462601d363dd357a7ea1a8
gd1973-07-27d1t08.flac:49814cc6dd2514b75d8f3584d1fa260d
gd1973-07-27d1t09.flac:b580e63437075c2d272dd7ed88bb8bb7
gd1973-07-27d2t01.flac:7a4dabcbbab728f6869ca69bb04ab29b
gd1973-07-27d2t02.flac:9b26b23b4c2629011816a6f70c52061e
gd1973-07-27d2t03.flac:e179c71ace7e49c85efc3c37fbafc7a1
gd1973-07-27d2t04.flac:4c51be9df08b41f2d52b1c5a874f8aec
gd1973-07-27d2t05.flac:a6a3524cc3a4fa81732ab0dcc5829f59
gd1973-07-27d2t06.flac:df8109a88154c1dfba28ff7d14b14f23
gd1973-07-27d2t07.flac:cba6ca0e02cbcd63841f80daf1dca392
flac-md5
a75988855556f11f3bc59bb1bb35df30 *gd1973-07-27d1t01.flac
4beab6b4ee2d462c387a1da5d06037b4 *gd1973-07-27d1t02.flac
cbe770121ed7c276ada2cf5f07d1d030 *gd1973-07-27d1t03.flac
fe4068534723ebbeab7b80f19be2e797 *gd1973-07-27d1t04.flac
05c6aaeedd4db0677af8b0118f8be67e *gd1973-07-27d1t05.flac
d897616c0eec1ce2e35fc7e584c4cda5 *gd1973-07-27d1t06.flac
6603ee1fd8a4ca29ae62537809b8a949 *gd1973-07-27d1t07.flac
91d7fa3829f91e45dbe7ae54b5b9d8df *gd1973-07-27d1t08.flac
72616b845835bc4756741f8ed64772c2 *gd1973-07-27d1t09.flac
ae465a2811fb2f0e2698a89a50d0dbe4 *gd1973-07-27d2t01.flac
652f28f4d0299546aecf2c3163120baa *gd1973-07-27d2t02.flac
5170c69eb960e04eb086bf900717a708 *gd1973-07-27d2t03.flac
03f3edee1f07e183d204d47cfbb44cf9 *gd1973-07-27d2t04.flac
7219173718753f8db8aee1336f89ed57 *gd1973-07-27d2t05.flac
2bdab53d646c65b3813cad28691dce09 *gd1973-07-27d2t06.flac
ae2ec12d374aa56274997819887b39a9 *gd1973-07-27d2t07.flac

Comments
Add Comment
Other Sources (comments)
no regular info file... (10) Soundcheck: Recording by... (0) AudMC stereo> ? > C > DAT >... (2) flac16; SBD> Master... (1) flac16; Lineage:... (0) flac16; Matrix by... (0) flac24; Recording... (0) flac16; Recording... (0) flac24; source: aud... (0) flac16; source: aud... (0)
Date User Comment