Browse Collections Artists Sources   Search Dates

Add Show    List Management    Help


Jerry Garcia Band 11/13/91
The Centrum, Worcester, MA
Comments Add Comment    Source Collectors    Add to Collection    Add to Want List    History
Source # 87502 Other Sources
Entered by Joe Jupille
Checksums ffp , md5
Disc Counts 2 / 2
Media Size
Date Circulated
Date Added
09/30/2007
10/01/2007
Source Summary JGB: Ted Carpenter's Nakamichi CM-300's w/CP-4 shotgun capsules > Sony TC-D5M > Maxell MX-90's w/no Dolby. Mics on stand, aprx 5-feet high, in section 102 (center riser end of floor). Taped by Ted Carpenter. Transfer: MAC > Nakamichi BX-125 (Dolby off) > Audiophile 2496 > Soundforge > CD-Wave > TLH > FLAC. Transferred by Andrew F. 
Source Information - Download Text | Download Zip
JERRY GARCIA BAND
The Centrum
Worcester MA
11-13-1991

Disc One - Set One (66:49)

01 //How Sweet It Is
02 They Love Eachother
03 When the Hunter Gets Captured by the Game
04 Dear Prudence
05 Like a Road
06 Money Honey
07 Senor >
08 Deal

Disc Two - Set Two (58:27)

01 The Way You Do the Things You Do
02 You Never Can Tell
03 Waiting for a Miracle
04 Shining Star
05 Ain't No Bread in the Breadbox
06 My Sisters and Brothers >
07 Midnight Moonlight

AUD: Nakamichi CM-300's w/CP-4 shotgun capsules > Sony TC-D5M >
Maxell MX-90's w/no Dolby. Mics on stand, aprx 5-feet high, in
section 102 (center riser end of floor). Taped by Ted Carpenter.

Transfer: MAC > Nakamichi BX-125 (Dolby off) > Audiophile 2496 >
Soundforge > CD-Wave > TLH > FLAC. Transferred by Andrew F.

Notes:
- The recording is a bit boomy throughout (mics kept low).
- How Sweet It Is cuts in at start of the vocals, intro missing.
- Level adjustments and minor distortion during How Sweet It Is.
- Very bad distortion (levels too hot) in TWYDTTYD 0:00 > 1:50.
- Soundforge used for fades, levels adjust, EQ distorted part.
- TLH used for SBE-OK, FLAC compression, and checksums.

md5

d67ad6a6cd5eb46fb825f36cb71888c3 *jgb1991-11-13d1t01.flac
ecf6c09f054f3784f869867a1fd49849 *jgb1991-11-13d1t02.flac
04ac68b180a5745fa9adebb29be3ee53 *jgb1991-11-13d1t03.flac
6478f3afab9eb7b3f402c02e30071f18 *jgb1991-11-13d1t04.flac
2d2d5920f5ce96d7089d44c5581c2b8e *jgb1991-11-13d1t05.flac
e286e436322903278d193c28fbf48ee6 *jgb1991-11-13d1t06.flac
0c8ea11b966d763e4a731e8b559d4f21 *jgb1991-11-13d1t07.flac
b019dc725c1af57fa46681530dff74af *jgb1991-11-13d1t08.flac
a21d8f3e388b7c196a27e110fe83902e *jgb1991-11-13d2t01.flac
50158e4bf2a8ffc02c7a4db31d46a00a *jgb1991-11-13d2t02.flac
c505a82743eff0fc4b4ba5bfd4c373dd *jgb1991-11-13d2t03.flac
356ef7467fb032607d8e0cc1a3d37e9f *jgb1991-11-13d2t04.flac
8ccd601490f957a07078b1a1eecdd4e8 *jgb1991-11-13d2t05.flac
852292f5a7233af0bf745c5f7cc461df *jgb1991-11-13d2t06.flac
56b92ba3ff178996ecd521a0dc335c90 *jgb1991-11-13d2t07.flac

ffp

jgb1991-11-13d1t01.flac:0de75728fb5600cc646e4008ae6fa8a8
jgb1991-11-13d1t02.flac:f41f48377b322383002c93a4ea9859d1
jgb1991-11-13d1t03.flac:cfeb037761b7d17b828cee5047ebff48
jgb1991-11-13d1t04.flac:c69ae7580bead8f5653bfe40d817f1c6
jgb1991-11-13d1t05.flac:ec523166cb63798fe73264df943a0d84
jgb1991-11-13d1t06.flac:7c743ca93994b3499f449f86e5f21466
jgb1991-11-13d1t07.flac:8057dd1f86ce21b2f015c734f1ea3028
jgb1991-11-13d1t08.flac:68c1e1b558868423eef459545bb61439
jgb1991-11-13d2t01.flac:0a550375c5fa5c447cafc922de9a32f7
jgb1991-11-13d2t02.flac:3d541936684cebcae257b1166d437913
jgb1991-11-13d2t03.flac:10ab4bc9fbe8a4a29e088f20773d143d
jgb1991-11-13d2t04.flac:d4f6cc5b7e0723e3d2f55a4d1b82b6a3
jgb1991-11-13d2t05.flac:66c368fd792516d9d805d6e2b6cb4d4b
jgb1991-11-13d2t06.flac:02270ae98cf88d2a8208d4a7e5a3ebbc
jgb1991-11-13d2t07.flac:5badb686193011ce226c6703adf5cdbb

shntool

    length     expanded size   cdr  WAVE problems filename
     7:34.02       80090348    ---   --   ---xx   jgb1991-11-13d1t01.flac
     8:37.52       91321148    ---   --   ---xx   jgb1991-11-13d1t02.flac
     7:34.43       80186780    ---   --   ---xx   jgb1991-11-13d1t03.flac
    12:50.01      135830396    ---   --   ---xx   jgb1991-11-13d1t04.flac
     9:15.34       97982012    ---   --   ---xx   jgb1991-11-13d1t05.flac
     6:36.16       69892076    ---   --   ---xx   jgb1991-11-13d1t06.flac
     5:39.73       59971340    ---   --   ---xx   jgb1991-11-13d1t07.flac
     8:41.57       92038508    ---   --   ---xx   jgb1991-11-13d1t08.flac
    13:23.08      141668060    ---   --   ---xx   jgb1991-11-13d2t01.flac
     7:07.08       75341660    ---   --   ---xx   jgb1991-11-13d2t02.flac
     5:46.29       61102652    ---   --   ---xx   jgb1991-11-13d2t03.flac
    12:51.53      136129100    ---   --   ---xx   jgb1991-11-13d2t04.flac
     8:52.71       94011836    ---   --   ---xx   jgb1991-11-13d2t05.flac
     3:56.54       41757452    ---   --   ---xx   jgb1991-11-13d2t06.flac
     6:30.00       68796044    ---   --   ---xx   jgb1991-11-13d2t07.flac
   125:17.51     1326119412 B                     (totals for 15 files, 0.5809 overall compression ratio)

There were no sector boundary errors.
Show Checksums
ffp
jgb1991-11-13d1t01.flac:0de75728fb5600cc646e4008ae6fa8a8
jgb1991-11-13d1t02.flac:f41f48377b322383002c93a4ea9859d1
jgb1991-11-13d1t03.flac:cfeb037761b7d17b828cee5047ebff48
jgb1991-11-13d1t04.flac:c69ae7580bead8f5653bfe40d817f1c6
jgb1991-11-13d1t05.flac:ec523166cb63798fe73264df943a0d84
jgb1991-11-13d1t06.flac:7c743ca93994b3499f449f86e5f21466
jgb1991-11-13d1t07.flac:8057dd1f86ce21b2f015c734f1ea3028
jgb1991-11-13d1t08.flac:68c1e1b558868423eef459545bb61439
jgb1991-11-13d2t01.flac:0a550375c5fa5c447cafc922de9a32f7
jgb1991-11-13d2t02.flac:3d541936684cebcae257b1166d437913
jgb1991-11-13d2t03.flac:10ab4bc9fbe8a4a29e088f20773d143d
jgb1991-11-13d2t04.flac:d4f6cc5b7e0723e3d2f55a4d1b82b6a3
jgb1991-11-13d2t05.flac:66c368fd792516d9d805d6e2b6cb4d4b
jgb1991-11-13d2t06.flac:02270ae98cf88d2a8208d4a7e5a3ebbc
jgb1991-11-13d2t07.flac:5badb686193011ce226c6703adf5cdbb
md5
d67ad6a6cd5eb46fb825f36cb71888c3 *jgb1991-11-13d1t01.flac
ecf6c09f054f3784f869867a1fd49849 *jgb1991-11-13d1t02.flac
04ac68b180a5745fa9adebb29be3ee53 *jgb1991-11-13d1t03.flac
6478f3afab9eb7b3f402c02e30071f18 *jgb1991-11-13d1t04.flac
2d2d5920f5ce96d7089d44c5581c2b8e *jgb1991-11-13d1t05.flac
e286e436322903278d193c28fbf48ee6 *jgb1991-11-13d1t06.flac
0c8ea11b966d763e4a731e8b559d4f21 *jgb1991-11-13d1t07.flac
b019dc725c1af57fa46681530dff74af *jgb1991-11-13d1t08.flac
a21d8f3e388b7c196a27e110fe83902e *jgb1991-11-13d2t01.flac
50158e4bf2a8ffc02c7a4db31d46a00a *jgb1991-11-13d2t02.flac
c505a82743eff0fc4b4ba5bfd4c373dd *jgb1991-11-13d2t03.flac
356ef7467fb032607d8e0cc1a3d37e9f *jgb1991-11-13d2t04.flac
8ccd601490f957a07078b1a1eecdd4e8 *jgb1991-11-13d2t05.flac
852292f5a7233af0bf745c5f7cc461df *jgb1991-11-13d2t06.flac
56b92ba3ff178996ecd521a0dc335c90 *jgb1991-11-13d2t07.flac

Comments
Add Comment
Date User Comment