Browse Collections Artists Sources   Search Dates

Add Show    List Management    Help


Jerry Garcia Band 11/06/91
Capital Centre, Landover, MD
Comments Add Comment    Source Collectors    Add to Collection    Add to Want List    History
Source # 87600 Other Sources
Entered by Joe Jupille
Checksums jgb1991-11-06.mtx.md5 , jgb1991-11-06.mtx.ffp
Disc Counts 2 / 3
Media Size
Date Circulated
Date Added
10/08/2007
10/09/2007
Source Summary JGB: flac16; Matrix 2 Source Mix - FOB AUD (shn id 16671) FOB (Schoeps 34 > Oade) > DAT > CDR > WAV > SHN + VID AUD (shn id 87588) DVD extraction to MPEG2 by MattMan as LPCM Wave files - matrix mixing by Kevin Tobin 
Source Information - Download Text | Download Zip
Jerry Garcia Band
11/06/1991
Capital Center
Landover, MD

FOB AUD + VIDEO AUD Matrix 2 Source Mix
(60%-FOB/40%-VID)

Set 1  
d1t01 - Cats Under The Stars
d1t02 - Stop That Train
d1t03 - You Never Can Tell
d1t04 - Run For the Roses
d1t05 - Simple Twist Of Fate
d1t06 - Ain't No Bread In The Breadbox
d1t07 - My Sisters And Brothers
d1t08 - Deal

Set 2  
d2t01 - The Way You Do The Things You Do
d2t02 - Waiting For A Miracle
d2t03 - Money Honey
d2t04 - Shining Star
d3t01 - Struggling Man
d3t02 - Don't Let Go
d3t03 - Everybody Needs Somebody To Love
Encore  
d3t04 - (What A) Wonderful World

Audio Source Information
FOB AUD (shnid=16671)
Source:  FOB (Schoeps 34 > Oade) > DAT > CDR > WAV > SHN.
Taper:  unknown.

Comments:  Can be tracked to fit onto 2 80 minute discs if encore is placed at the end of disc 1.    The Wonderful World has to end the show for me...

Outstanding, highly listenable audience recording.  Level changes early in set 2.  Tape paused before start of Simple Twist of Fate.

Thanks to H.Angus for the CDR source.
DAE(EAC 0.9 beta 4, offset corrected, secure mode) > tracking (cdwave) > SHN (shorten 3.4) > FTP via C.Ladner/candyman FTP.

Another productSHN of the MisSHN in the Rain initiative.SHN of the MisSHN in the Rain initiative.

VID AUD (shnid=87588)
~DVD extraction to MPEG2 by MattMan as LPCM Wave files.
Edited and Mastered By Kevin Tobin on the BHP Edit Station
Track'd, Cdwave
Flac'd Level 8 TLH
---------------------------------------------------------
Multitrack Mixdown Settings

SET ONE

Stereo Matrix
SBD -1
AUD -2

SET TWO

Stereo Matrix
SBD -1
AUD -2
---------------------------------------------------------
Tech Notes

SHNs were decoded to wave and Audition 2.0 was used to reassemble
the tracks back to 1 long wave.  Audition 2.0 was used to align &
synch the FOB AUD & VID AUD sources.
- Mixed by [email protected]
- FLAC conversion 06-OCT-2007  

---------------------------------------------------------
Brokedown House Production

    length     expanded size   cdr  WAVE problems filename
    11:38.53      123251900    ---   --   -----   jgb91-11-06d1t01.wav
     9:29.74      100545692    ---   --   -----   jgb91-11-06d1t02.wav
     8:25.05       89093804    ---   --   -----   jgb91-11-06d1t03.wav
     6:37.00       70030844    ---   --   -----   jgb91-11-06d1t04.wav
    14:26.65      152915324    ---   --   -----   jgb91-11-06d1t05.wav
     7:43.20       81720284    ---   --   -----   jgb91-11-06d1t06.wav
     3:57.39       41898572    ---   --   -----   jgb91-11-06d1t07.wav
     9:30.66      100703276    ---   --   -----   jgb91-11-06d1t08.wav
    14:15.31      150894956    ---   --   -----   jgb91-11-06d2t01.wav
     6:03.18       64075580    ---   --   -----   jgb91-11-06d2t02.wav
     8:16.53       87619100    ---   --   -----   jgb91-11-06d2t03.wav
    10:54.35      115447964    ---   --   -----   jgb91-11-06d2t04.wav
     8:14.08       87160460    ---   --   -----   jgb91-11-06d3t01.wav
    15:37.56      165418556    ---   --   -----   jgb91-11-06d3t02.wav
    12:17.54      130133852    ---   --   -----   jgb91-11-06d3t03.wav
     6:35.71       69845036    ---   --   -----   jgb91-11-06d3t04.wav
   154:04.48     1630755200 B                     (totals for 16 files, 1.0000 overall compression ratio)


Show Checksums
jgb1991-11-06.mtx.md5
ebf4aa48b221988c59c4470fff2361e2 *jgb91-11-06d1t01.flac
bc425723be7c5646b9e5a214b9f35563 *jgb91-11-06d1t02.flac
b33d0570b8928f66672872c4b46fb651 *jgb91-11-06d1t03.flac
d49431f34c22b1a79875029f9f51c482 *jgb91-11-06d1t04.flac
4600cd861b17e5c5c0bfdafa88c6713d *jgb91-11-06d1t05.flac
06c993fb951fada31da8daf8575aab80 *jgb91-11-06d1t06.flac
1f8b2a559c7c0fd69eebb224811d773d *jgb91-11-06d1t07.flac
f022373e25b63fe94a03db0e21469911 *jgb91-11-06d1t08.flac
90b16ae9f1b419013d8a0d170e398478 *jgb91-11-06d2t01.flac
49c03c10ecbc7cbd44ffbc933991992f *jgb91-11-06d2t02.flac
fc24e917c14bff9fc66277dc8dd65dda *jgb91-11-06d2t03.flac
6a57031aaaeb3784ec11336a36942df9 *jgb91-11-06d2t04.flac
0a5ccb93095401546d62a0cbf824460a *jgb91-11-06d3t01.flac
7f3dac790be551333ed7a254343ea9aa *jgb91-11-06d3t02.flac
c5291d0e39e63e67d04bc38f7378ba2f *jgb91-11-06d3t03.flac
70b95952b5e1c08786c0df85d67c0396 *jgb91-11-06d3t04.flac
jgb1991-11-06.mtx.ffp
jgb91-11-06d1t01.flac:ebe2c121bdb21e8f987185b84b51217d
jgb91-11-06d1t02.flac:7c2c3f682b1d58d357a0e914154d42e0
jgb91-11-06d1t03.flac:73a9a53e6e07145a7a4fa654f49f1c47
jgb91-11-06d1t04.flac:7ab1210c4be3b386391a126328c88f28
jgb91-11-06d1t05.flac:f1565772ad2dda5355def3a34979ab31
jgb91-11-06d1t06.flac:81e0edfdbd4cbf1eb37841ec29ba7312
jgb91-11-06d1t07.flac:45c0303c159e19884335950bfafbdb86
jgb91-11-06d1t08.flac:56221484f0c537978292a9ff2bc1900a
jgb91-11-06d2t01.flac:b66f4786c07726caba076491562e76c4
jgb91-11-06d2t02.flac:33d393c5d48bd5256717c61c9922ac6e
jgb91-11-06d2t03.flac:220c5e96f20e39855bf4774ad5c28158
jgb91-11-06d2t04.flac:2f74b8791cce7fd7503a45e3d24cb739
jgb91-11-06d3t01.flac:14bb9de72a6136cd85a850a7fa96f8f2
jgb91-11-06d3t02.flac:2d5f6032ce237c93dcc13000a67e304e
jgb91-11-06d3t03.flac:3d39e6c139bccafb004d9f5236cbe663
jgb91-11-06d3t04.flac:ac93243adfd89b5116fe082d7aa6a781

Comments
Add Comment
Other Sources (comments)
JGB, flac16: AUD: Low gen... (0)
Date User Comment