Browse Collections Artists Sources   Search Dates

Add Show    List Management    Help


Phish 11/29/03
Wachovia Spectrum, Philadelphia, PA
Comments Add Comment    Source Collectors    Add to Collection    Add to Want List    History
Source # 87707 Other Sources
Entered by Terry Watts
Checksums FFP , WAV
Disc Counts 2 / 2
Media Size
Date Circulated
Date Added
10/16/2007
10/16/2007
Source Summary flac16, 44kHz; MBHO 603a/ka200n's > Sound Devices MP-2 > Sonic AD2K+ > VX Pocket > Lifebook p2120 > WAV(m); WAV(m) > r8brain > WaveLab > CDWave > FLAC; Source by Ian Stone; Transfer by Jason Sobel 
Source Information - Download Text | Download Zip
Phish
November 29, 2003
Wachovia Spectrum
Philadelphia, PA

source:
MBHO 603a/ka200n > Sound Devices MP-2 > Sonic AD2K+ > vx pocket > lifebook p2120 (@ 16/48)

transfer:
r8brain v1.9 (resample to 44.1 kHz) > WaveLab 5.01b (fades) > CD Wave v1.96.1 > FLAC v1.2.1 (Level 8)

FLAC tags added with metaflac v1.2.1

recorded by Ian Stone
tracked & FLAC'ed by Jason Sobel ([email protected])
seeded October 16, 2007

notes:
The raw, uncut WAV files were transferred with an external USB 2.0 hard drive.
The original 48 kHz .wav files have been archived, and are available upon request.
Big thanks to Ian for giving me copies of his recordings.

Disc 1 - [70:13]
Set I
01 - [05:25] - Wilson
02 - [04:25] - Cars Trucks Buses
03 - [09:21] - Limb By Limb
04 - [04:33] - Dirt
05 - [12:57] - Seven Below
06 - [15:41] - The Divided Sky
07 - [07:28] - Fast Enough For You
08 - [10:24] - Julius

Disc 2 - [78:32]
Set II
01 - [18:00] - Twist >
02 - [08:29] - Simple
03 - [09:29] - Taste
04 - [04:45] - Makisupa Policeman
05 - [02:27] - Buffalo Bill *
06 - [12:51] - David Bowie
07 - [03:08] - Strange Design
08 - [07:59] - Character Zero
09 - [03:28] - encore break
10 - [07:54] - Friday

* with Tom Marshall on vocals

------------------------------------------------------------------------------------

SHNtool output:

    length     expanded size   cdr  WAVE problems filename
     5:24.68       57313580    ---   --   ---xx   ph2003-11-29d1t01.flac
     4:24.62       46715468    ---   --   ---xx   ph2003-11-29d1t02.flac
     9:21.13       98991020    ---   --   ---xx   ph2003-11-29d1t03.flac
     4:32.72       48150188    ---   --   ---xx   ph2003-11-29d1t04.flac
    12:56.72      137055788    ---   --   ---xx   ph2003-11-29d1t05.flac
    15:40.48      165928940    ---   --   ---xx   ph2003-11-29d1t06.flac
     7:27.67       79008428    ---   --   ---xx   ph2003-11-29d1t07.flac
    10:23.48      110010140    ---   --   ---xx   ph2003-11-29d1t08.flac
    18:00.35      190594364    ---   --   ---xx   ph2003-11-29d2t01.flac
     8:29.12       89815868    ---   --   ---xx   ph2003-11-29d2t02.flac
     9:29.10      100395164    ---   --   ---xx   ph2003-11-29d2t03.flac
     4:45.30       50344604    ---   --   ---xx   ph2003-11-29d2t04.flac
     2:27.22       25982588    ---   --   ---xx   ph2003-11-29d2t05.flac
    12:51.20      136051484    ---   --   ---xx   ph2003-11-29d2t06.flac
     3:08.06       33177356    ---   --   ---xx   ph2003-11-29d2t07.flac
     7:59.14       84528572    ---   --   ---xx   ph2003-11-29d2t08.flac
     3:27.73       36686540    ---   --   ---xx   ph2003-11-29d2t09.flac
     7:54.03       83620700    ---   --   ---xx   ph2003-11-29d2t10.flac
   148:45.00     1574370792 B                     (totals for 18 files, 0.5154 overall compression ratio)


Show Checksums
FFP
ph2003-11-29d1t01.flac:3eba1a6c629a80e3ebea968c10325fa0
ph2003-11-29d1t02.flac:4fd422cf3ee57b89017ccf58a09a981c
ph2003-11-29d1t03.flac:344e1ed1f6ad82561ed5e3fbd63f7a7b
ph2003-11-29d1t04.flac:1792dee11b157679a4ba19dd343042dd
ph2003-11-29d1t05.flac:d72105b07ddec70043b6df830091b7e8
ph2003-11-29d1t06.flac:76f7e5bc2e7314d629c37708335fe40e
ph2003-11-29d1t07.flac:50cdde0212ca2efde64d21958299183e
ph2003-11-29d1t08.flac:2dcf71290e793c5a48528fcf04be2637
ph2003-11-29d2t01.flac:9fce344a449fb961bd56d614c3cde201
ph2003-11-29d2t02.flac:ca4cd9cc412cc682bab6fd6033bdea4c
ph2003-11-29d2t03.flac:d03160ea18b2124b57b3be55f2ce7353
ph2003-11-29d2t04.flac:7c4b4d1b020a9ea6bd8defecd19cfa66
ph2003-11-29d2t05.flac:942d6147d70d9a665d4ebf23f4900f37
ph2003-11-29d2t06.flac:529b4bdd9a938e6ac0c45ec016581062
ph2003-11-29d2t07.flac:81c10c6cb711244cd50227f87870c7cb
ph2003-11-29d2t08.flac:12effc84fdbbad1faf1f18437ecfd42d
ph2003-11-29d2t09.flac:e586d4f4c67417d7b04fdc79f581e1e2
ph2003-11-29d2t10.flac:af554229acbbb49ee1e7ee407d1744fd
WAV
e67898922be4e3e00d7d9141651d343d *ph2003-11-29d1t01.wav
e7fb974a2055bdae104fc9a4c5c5738c *ph2003-11-29d1t02.wav
c419b344fe7b9a4336f4424321803793 *ph2003-11-29d1t03.wav
06508f1f7563c1d50723a80ee0554309 *ph2003-11-29d1t04.wav
7828a4a4115f6ab138356219c8a5f015 *ph2003-11-29d1t05.wav
fab17104c9a418eb4588360892882c91 *ph2003-11-29d1t06.wav
e3bbf87384c8905c3220a29a68097051 *ph2003-11-29d1t07.wav
cace15b15b09f5c4a6bd8b1d29357f47 *ph2003-11-29d1t08.wav
76a98978c731e2d07e1b5b2ad854e61b *ph2003-11-29d2t01.wav
c2adc0f1d9eefac1df47d49d61ade981 *ph2003-11-29d2t02.wav
1c4d0cb497878e0ed89e1924ad4adf11 *ph2003-11-29d2t03.wav
595102a5892d365edf6374f586a82e4a *ph2003-11-29d2t04.wav
f698033b5ceafb97e72a41769bbeaa42 *ph2003-11-29d2t05.wav
8bcedcd0138c417befbb759b1edea632 *ph2003-11-29d2t06.wav
8c20d82b8c8160bbc21886c9c6044f79 *ph2003-11-29d2t07.wav
7ee7aaad4bc3f2f5767c74b6f76d2af3 *ph2003-11-29d2t08.wav
a50e347b24ab63c9582678e58a96b7ac *ph2003-11-29d2t09.wav
47c2ea3f83debd2451d7cd5bc173ddc5 *ph2003-11-29d2t10.wav

Comments
Add Comment
Other Sources (comments)
flac16, 44kHz;... (0) shn16, 44kHz; Audio... (5) FOB Schoeps CMXY4V (XY) >... (4) flac16, 44kHz; AKG... (0) flac16, 44kHz;... (2) FOB Schoeps mk4v (ORTF, in... (1) flac16, 44kHz;... (0) FOB Schoeps mk4v (ORTF, in... (0) flac16, 44kHz; AKG... (0) flac16, 44kHz;... (0) flac24, 48kHz;... (0) flac16, 48kHz;... (0)
Date User Comment