Browse Collections Artists Sources   Search Dates

Add Show    List Management    Help


Grateful Dead 04/15/83
Community War Memorial Auditorium, Rochester, NY
Comments Add Comment    Source Collectors    Add to Collection    Add to Want List    History
Source # 87725 Other Sources
Entered by Gary Field
Checksums ffp , flac-md5
Disc Counts 2 / 3
Media Size
Date Circulated
Date Added
10/17/2007
10/17/2007
Source Summary flac16; Recording Info: (FOB) Audio Technica Mics -> Cassette Master (Sony D6/Maxell UDXL-II) Transfer Info: Cassette Master (Namamichi DR-1) -> Apogee MiniMe (24bit/48k) -> Samplitude Professional v9.11 -> FLAC/16 Recorded and Transfered By Charlie Miller 
  Archive
Source Information - Download Text | Download Zip
Grateful Dead - April 15, 1983
War Memorial Auditorium - Rochester, NY

Recording Info:
(FOB) Audio Technica Mics -> Cassette Master (Sony D6/Maxell UDXL-II)

Transfer Info:
Cassette Master (Namamichi DR-1) -> Apogee MiniMe (24bit/48k) ->
Samplitude Professional v9.11 -> FLAC/16
(3 Discs Audio / 2 Discs FLAC)

Recorded and Transfered By Charlie Miller
[email protected]
October 16, 2007

Patch Info:
(FOB) Sennheiser 421 -> Cassette Master -> Dat -> CD (shnid=9974) supplies:
Little Star (0:32 - 0:37)
Drums (0:16 - end of track)
Space (0:00 - 1:47)
Around And Around (0:50 - 1:03)

Notes:
-- Set 2 is seamless
-- Recorded 15 feet in front of sbd, about 10 feet to the right
-- This was the first Grateful Dead show I taped
-- Patch source was slightly EQ'd to better match my tape
-- Unpatched cut during first few seconds of Around And Around

Set One:
d1t01 - Tuning
d1t02 - Shakedown Street
d1t03 - My Brother Esau
d1t04 - Brown Eyed Women
d1t05 - Little Red Rooster
d1t06 - Dire Wolf
d1t07 - Lazy Lightning ->
d1t08 - Supplication ->
d1t09 - Deal

Set Two:
d2t01 - Tuning
d2t02 - Feel Like A Stranger
d2t03 - Samson And Delilah
d2t04 - Ship Of Fools
d2t05 - Maybe You Know
d2t06 - He's Gone ->
d2t07 - Bob Star ->
d2t08 - Drums ->
d3t01 - Space ->
d3t02 - Throwing Stones ->
d3t03 - Not Fade Away ->
d3t04 - Goin' Down The Road Feeling Bad ->
d3t05 - Around And Around ->
d3t06 - Johnny B. Goode

Encore:
d3t07 - It's All Over Now, Baby Blue


SHNTOOL OUTPUT:
    length     expanded size   cdr  WAVE problems filename
     3:51.33       40826060    ---   --   -----   gd83-04-15d1t01.wav
    14:00.37      148263068    ---   --   -----   gd83-04-15d1t02.wav
     7:07.51       75442796    ---   --   -----   gd83-04-15d1t03.wav
     6:58.12       73763468    ---   --   -----   gd83-04-15d1t04.wav
     9:35.24      101486492    ---   --   -----   gd83-04-15d1t05.wav
     4:08.22       43798988    ---   --   -----   gd83-04-15d1t06.wav
     3:46.60       40007564    ---   --   -----   gd83-04-15d1t07.wav
     6:38.39       70298972    ---   --   -----   gd83-04-15d1t08.wav
     7:44.31       81922556    ---   --   -----   gd83-04-15d1t09.wav
     1:00.28       10649900    ---   --   -----   gd83-04-15d2t01.wav
     9:06.10       96337964    ---   --   -----   gd83-04-15d2t02.wav
     9:29.12      100399868    ---   --   -----   gd83-04-15d2t03.wav
     8:38.34       91455212    ---   --   -----   gd83-04-15d2t04.wav
     5:03.00       53449244    ---   --   -----   gd83-04-15d2t05.wav
    13:01.55      137897804    ---   --   -----   gd83-04-15d2t06.wav
     5:58.35       63233564    ---   --   -----   gd83-04-15d2t07.wav
     5:45.16       60895676    ---   --   -----   gd83-04-15d2t08.wav
    12:16.58      129966860    ---   --   -----   gd83-04-15d3t01.wav
     9:46.17      103410428    ---   --   -----   gd83-04-15d3t02.wav
     6:02.17       63896828    ---   --   -----   gd83-04-15d3t03.wav
     6:52.71       72843836    ---   --   -----   gd83-04-15d3t04.wav
     3:37.30       38349404    ---   --   -----   gd83-04-15d3t05.wav
     4:33.20       48204284    ---   --   -----   gd83-04-15d3t06.wav
     7:13.36       76465916    ---   --   -----   gd83-04-15d3t07.wav
   172:15.73     1823266752 B                     (totals for 24 files)
Show Checksums
ffp
gd83-04-15d1t01.flac:3f80bff194850a60d29cf9e415e5a2ba
gd83-04-15d1t02.flac:b6014691b95748addb8b51f497d7d0d5
gd83-04-15d1t03.flac:7637bc1c2b4fc1aeb383bdec047967de
gd83-04-15d1t04.flac:cc536e7f505d560be9254b42a712d583
gd83-04-15d1t05.flac:2f434854f6dd2a6915b6eb86fdbb7881
gd83-04-15d1t06.flac:5a8365b0016c8fc35ad69d5e88a10033
gd83-04-15d1t07.flac:e5152769a62cfea4329d1550fe5256aa
gd83-04-15d1t08.flac:2501af23a3f020d842c5837ee3ad8ecf
gd83-04-15d1t09.flac:43bf4a5cdc23ca306bfb445e2b6c55a8
gd83-04-15d2t01.flac:bca0d8b80d0571d8a077aeddc64132ba
gd83-04-15d2t02.flac:566dfb923534b2628019b2540e951868
gd83-04-15d2t03.flac:99c95356298ffb542ca51cfbc3cc2ca3
gd83-04-15d2t04.flac:d9f27e5f25b70032aaf25c7b1ab033d3
gd83-04-15d2t05.flac:a5ca29cfc24f7f2e64131065d297f6e5
gd83-04-15d2t06.flac:1769275db7de36b0d2152f80a35f7b60
gd83-04-15d2t07.flac:870c36f8b31264b8930dbfd8a099ca6f
gd83-04-15d2t08.flac:abe199a6cd4cb5c70ccea18fb327865b
gd83-04-15d3t01.flac:d5e0b7e5a707fc3da76d0248b6ef0cdd
gd83-04-15d3t02.flac:b0c0bcbb7837c52d00a59123f03d5f66
gd83-04-15d3t03.flac:294f8f490ff522ac94be500882436f4d
gd83-04-15d3t04.flac:0cc7ae51e3165ad1325aaa528bcab57b
gd83-04-15d3t05.flac:fc45215f08de0a9b89ca03a3fa15e762
gd83-04-15d3t06.flac:7c824ec885f72d368ec8ca6019b343cb
gd83-04-15d3t07.flac:ba985f186092935a398aed85be01356d
flac-md5
8b5f31e084a9a2ffca162037af2da983 *gd83-04-15d1t01.flac
6ef6a4dfa53620c267aa5df0d075ab60 *gd83-04-15d1t02.flac
b0c47cffc3884a16f4b7014550d9bee4 *gd83-04-15d1t03.flac
84e22ed2e56471177dde283d8868e7f1 *gd83-04-15d1t04.flac
80bd57eed4fb0f839904eabc77b5036e *gd83-04-15d1t05.flac
6c674c0d37c86ce1cd966c4a32a14ab0 *gd83-04-15d1t06.flac
e014c9a79771ab049ba43d355e7dfe42 *gd83-04-15d1t07.flac
f0decaa8f2e284005187186d30ed4025 *gd83-04-15d1t08.flac
4fdfb8662fccf394d42827f3eed2644a *gd83-04-15d1t09.flac
fc6913dbbd9ce2e64902d9464764cb4d *gd83-04-15d2t01.flac
f874bb3dd0fd57b61a05ab28291d6b1f *gd83-04-15d2t02.flac
0d6afeedf64b31e99a4e27e0e971956f *gd83-04-15d2t03.flac
a8fdb6eab11eee165969292debcf5d1f *gd83-04-15d2t04.flac
e36d7df3d86fd55f42f06ff7244939c8 *gd83-04-15d2t05.flac
b07f0654835d7e20e0bd99ac6db6449b *gd83-04-15d2t06.flac
bea0b642b86fe6aa48bab4fa14100943 *gd83-04-15d2t07.flac
c278ead414862b6103bc5b8101809279 *gd83-04-15d2t08.flac
a1c5b8857091f6683f4290f29b3e3e0e *gd83-04-15d3t01.flac
d9de21766f032e9d391fbb221b976b90 *gd83-04-15d3t02.flac
8e9af19a0bbc0bfeeab51f378a1f40cf *gd83-04-15d3t03.flac
3de882af823b802c93e8a7380675a062 *gd83-04-15d3t04.flac
3fd750080cfb73261f6f2050675bb485 *gd83-04-15d3t05.flac
c144e5187be1f1dacda56e4deb40b561 *gd83-04-15d3t06.flac
d5b0d1f92b8774d8edbd4994ef8a3bb2 *gd83-04-15d3t07.flac

Comments
Add Comment
Other Sources (comments)
Senn. 421?s > MC>DAT>CD;... (0) 2nd set; SBD>PCM>DAT>Sonic... (1) (FOB) Audio Technica Mics... (0) Recording Info: Set 1: SBD... (0) flac24; Recording... (0) flac16;... (0) flac16;Recording... (0) flac24; Recording... (0) flac16; AUD:... (0) flac16; 2 source... (0) flac16; Set 2... (0) flac16; aud cassette... (0) flac24; aud cassette... (0) flac24; source:... (0) flac16/44.1 ... (0) flac24/48 ... (0) flac16/44.1 ... (0) flac24/48 ... (0) flac24; Recording... (0)
Date User Comment