Browse Collections Artists Sources   Search Dates

Add Show    List Management    Help


Grateful Dead 01/07/79
Madison Square Garden, New York, NY
Comments Add Comment    Source Collectors    Add to Collection    Add to Want List    History
Source # 87739 Other Sources
Entered by Matt Vernon
Checksums flac-md5 , ffp
Disc Counts 2 / 3
Media Size
Date Circulated
Date Added
10/19/2007
10/19/2007
Source Summary flac16; Recording by Bob Wagner: Nakamichi 300/CP1 -> Cassette Master (Maxell UDXL-II/Sony TC-158) (Set 2 has a Sennheiser 441 mixed in) All Transfers and Mastering By Charlie Miller  
  Archive
Source Information - Download Text | Download Zip
Grateful Dead - January 7, 1979
Madison Square Garden - New York, NY

Recording Info:
Nakamichi 300/CP1 -> Cassette Master (Maxell UDXL-II/Sony TC-158)
(Set 2 has a Sennheiser 441 mixed in)

Transfer Info:
Cassette Master (Nakamichi DR-1) -> Sound Devices 744T (24bit/48k) ->
Samplitude Professional v9.11 -> FLAC/16
(3 Discs Audio / 2 Discs FLAC)

All Transfers and Mastering By Charlie Miller
[email protected]
October 18, 2007

Patch Info:
AUD -> Cassette Master -> Dat -> CD (shnid=1145) supplies:
Jack-A-Roe (0:00 - 0:05)
Not Fade Away (0:55 - 1:05)

Notes:
-- Set 2 is seamless
-- Recorded By Robert Wagner
-- Rescheduled from November 30, 1978
-- PA craps out during Black Peter (it's really bad)
-- Patch source was EQ'd to better match the main source
-- Level adjustments during I Need A Miracle

Set 1:
d1t01 - Tuning
d1t02 - Jack Straw
d1t03 - They Love Each Other
d1t04 - Cassidy
d1t05 - Jack-A-Roe
d1t06 - Looks Like Rain
d1t07 - Tennessee Jed
d1t08 - El Paso
d1t09 - Stagger Lee
d1t10 - Passenger

Set 2:
d2t01 - Tuning
d2t02 - I Need A Miracle ->
d2t03 - Shakedown Street
d2t04 - From The Heart Of Me
d2t05 - Estimated Prophet ->
d2t06 - Eyes Of The World ->
d2t07 - Drums ->
d3t01 - Space ->
d3t02 - Not Fade Away ->
d3t03 - Black Peter ->
d3t04 - Around And Around

Encore:
d3t05 - Good Lovin'


SHNTOOL OUTPUT:
    length    expanded size  cdr  WAVE problems filename
    0:54.62        9671468    ---  --  -----  gd79-01-07d1t01.wav
    6:30.49      68911292    ---  --  -----  gd79-01-07d1t02.wav
    10:23.04      109906652    ---  --  -----  gd79-01-07d1t03.wav
    5:29.69      58197932    ---  --  -----  gd79-01-07d1t04.wav
    6:54.17      73069628    ---  --  -----  gd79-01-07d1t05.wav
    10:06.04      106907852    ---  --  -----  gd79-01-07d1t06.wav
    9:29.29      100439852    ---  --  -----  gd79-01-07d1t07.wav
    5:24.68      57313580    ---  --  -----  gd79-01-07d1t08.wav
    8:02.60      85165964    ---  --  -----  gd79-01-07d1t09.wav
    5:33.30      58811804    ---  --  -----  gd79-01-07d1t10.wav
    2:41.51      28520396    ---  --  -----  gd79-01-07d2t01.wav
    7:09.11      75701516    ---  --  -----  gd79-01-07d2t02.wav
    13:00.03      137599100    ---  --  -----  gd79-01-07d2t03.wav
    6:48.63      72119420    ---  --  -----  gd79-01-07d2t04.wav
    10:37.31      112439756    ---  --  -----  gd79-01-07d2t05.wav
    9:44.23      103071740    ---  --  -----  gd79-01-07d2t06.wav
    8:43.52      92379548    ---  --  -----  gd79-01-07d2t07.wav
    4:19.67      45845228    ---  --  -----  gd79-01-07d3t01.wav
    13:33.57      143547308    ---  --  -----  gd79-01-07d3t02.wav
    11:34.16      122459276    ---  --  -----  gd79-01-07d3t03.wav
    9:34.57      101387708    ---  --  -----  gd79-01-07d3t04.wav
    7:54.53      83738300    ---  --  -----  gd79-01-07d3t05.wav
  174:31.51    1847205320 B                    (totals for 22 files)

FFP
gd79-01-07d1t01.flac:c1614ad2d08753269b78f3a76f0a9c44
gd79-01-07d1t02.flac:75359b818bddfa2c3240098444abcfb7
gd79-01-07d1t03.flac:bf94eb8e7ff1998de2b603892466557c
gd79-01-07d1t04.flac:5dbb417e8d19661b47a4489686dc4b23
gd79-01-07d1t05.flac:e665e74f13d7db9b5dab930a5579d084
gd79-01-07d1t06.flac:9694f43d977c2a831104072af33ce2b4
gd79-01-07d1t07.flac:98dea9e405dae3b07256d3a41337a8c6
gd79-01-07d1t08.flac:5340d8794fb3ef54885c1ebae8df2c42
gd79-01-07d1t09.flac:8692a60a8dccd8dd7716b12b062bc762
gd79-01-07d1t10.flac:baf34a71376564650db0b9b6c683d195
gd79-01-07d2t01.flac:711dd041c5eebe8a2d91af4e299bcac5
gd79-01-07d2t02.flac:4bfff9f67a59497de87027c4f1aa53c5
gd79-01-07d2t03.flac:03b6b23fa522a7fe8ef747296bc4f0c4
gd79-01-07d2t04.flac:5573c8374df54853703940bcd6c73228
gd79-01-07d2t05.flac:e3326e5f0fd316c197781047496a02a4
gd79-01-07d2t06.flac:6687af02f5e698b469a03dc8641012b2
gd79-01-07d2t07.flac:1d8305aaa548a7138282ceb4340fd4a6
gd79-01-07d3t01.flac:ae6508651d3311527a14b3a70b0a6cdc
gd79-01-07d3t02.flac:22661ab7a5570370e527532d5164a357
gd79-01-07d3t03.flac:7c3f1354fe50b0c81fd7310ed2e9521d
gd79-01-07d3t04.flac:a9b4f5831f0c73a804fe4531dd0e0ffd
gd79-01-07d3t05.flac:bf935017c944dbe48958fc180b1d2d0a

MD5
0adaf046c5a107295d69f5880265b5f7 *gd79-01-07d1t01.flac
607d24bdf76f5600f3ff7318b3a881e7 *gd79-01-07d1t02.flac
47293faffe5e04f8e848d55715a63ab7 *gd79-01-07d1t03.flac
5691acfd511ad8a96c723847186e025c *gd79-01-07d1t04.flac
4b4d989b683badc624f2fba8f7fc38e3 *gd79-01-07d1t05.flac
cf5c7f858dca0246788444cfb75ea7aa *gd79-01-07d1t06.flac
43ba1c101d9fccbc871bc42dd199cec9 *gd79-01-07d1t07.flac
dbc87f2526d42d7b549ec431bd6095ad *gd79-01-07d1t08.flac
21b6aa9fc0493592c972f7a7348bc116 *gd79-01-07d1t09.flac
ff23d010c535114704fda50ab8d930b1 *gd79-01-07d1t10.flac
2f52c38a10457a3b9f042d61f9bc1c65 *gd79-01-07d2t01.flac
80f60447d068ec55f6a462e0c108f7d7 *gd79-01-07d2t02.flac
d6e5b51a50482c0d1a8e363cf9771360 *gd79-01-07d2t03.flac
18ab11bfe4b219de175af2c2e4beed7b *gd79-01-07d2t04.flac
d569d7b5c3ee5a502a972b4e89386a26 *gd79-01-07d2t05.flac
17690a6453c0f118c46378542d990af6 *gd79-01-07d2t06.flac
b41583453392020b77bac180f1b89fef *gd79-01-07d2t07.flac
e06faee91fae13ef201e570ab3029c5a *gd79-01-07d3t01.flac
feed74b48a49492aa9f6387c413a5624 *gd79-01-07d3t02.flac
83bca6d6562da0f19795b34b6d5872a1 *gd79-01-07d3t03.flac
99e6398736a3e4ad1b52634d3ad61e61 *gd79-01-07d3t04.flac
92de887a2e612eb1a19d34ac5ad0741e *gd79-01-07d3t05.flac
Show Checksums
flac-md5
0adaf046c5a107295d69f5880265b5f7 *gd79-01-07d1t01.flac
607d24bdf76f5600f3ff7318b3a881e7 *gd79-01-07d1t02.flac
47293faffe5e04f8e848d55715a63ab7 *gd79-01-07d1t03.flac
5691acfd511ad8a96c723847186e025c *gd79-01-07d1t04.flac
4b4d989b683badc624f2fba8f7fc38e3 *gd79-01-07d1t05.flac
cf5c7f858dca0246788444cfb75ea7aa *gd79-01-07d1t06.flac
43ba1c101d9fccbc871bc42dd199cec9 *gd79-01-07d1t07.flac
dbc87f2526d42d7b549ec431bd6095ad *gd79-01-07d1t08.flac
21b6aa9fc0493592c972f7a7348bc116 *gd79-01-07d1t09.flac
ff23d010c535114704fda50ab8d930b1 *gd79-01-07d1t10.flac
2f52c38a10457a3b9f042d61f9bc1c65 *gd79-01-07d2t01.flac
80f60447d068ec55f6a462e0c108f7d7 *gd79-01-07d2t02.flac
d6e5b51a50482c0d1a8e363cf9771360 *gd79-01-07d2t03.flac
18ab11bfe4b219de175af2c2e4beed7b *gd79-01-07d2t04.flac
d569d7b5c3ee5a502a972b4e89386a26 *gd79-01-07d2t05.flac
17690a6453c0f118c46378542d990af6 *gd79-01-07d2t06.flac
b41583453392020b77bac180f1b89fef *gd79-01-07d2t07.flac
e06faee91fae13ef201e570ab3029c5a *gd79-01-07d3t01.flac
feed74b48a49492aa9f6387c413a5624 *gd79-01-07d3t02.flac
83bca6d6562da0f19795b34b6d5872a1 *gd79-01-07d3t03.flac
99e6398736a3e4ad1b52634d3ad61e61 *gd79-01-07d3t04.flac
92de887a2e612eb1a19d34ac5ad0741e *gd79-01-07d3t05.flac
ffp
gd79-01-07d1t01.flac:c1614ad2d08753269b78f3a76f0a9c44
gd79-01-07d1t02.flac:75359b818bddfa2c3240098444abcfb7
gd79-01-07d1t03.flac:bf94eb8e7ff1998de2b603892466557c
gd79-01-07d1t04.flac:5dbb417e8d19661b47a4489686dc4b23
gd79-01-07d1t05.flac:e665e74f13d7db9b5dab930a5579d084
gd79-01-07d1t06.flac:9694f43d977c2a831104072af33ce2b4
gd79-01-07d1t07.flac:98dea9e405dae3b07256d3a41337a8c6
gd79-01-07d1t08.flac:5340d8794fb3ef54885c1ebae8df2c42
gd79-01-07d1t09.flac:8692a60a8dccd8dd7716b12b062bc762
gd79-01-07d1t10.flac:baf34a71376564650db0b9b6c683d195
gd79-01-07d2t01.flac:711dd041c5eebe8a2d91af4e299bcac5
gd79-01-07d2t02.flac:4bfff9f67a59497de87027c4f1aa53c5
gd79-01-07d2t03.flac:03b6b23fa522a7fe8ef747296bc4f0c4
gd79-01-07d2t04.flac:5573c8374df54853703940bcd6c73228
gd79-01-07d2t05.flac:e3326e5f0fd316c197781047496a02a4
gd79-01-07d2t06.flac:6687af02f5e698b469a03dc8641012b2
gd79-01-07d2t07.flac:1d8305aaa548a7138282ceb4340fd4a6
gd79-01-07d3t01.flac:ae6508651d3311527a14b3a70b0a6cdc
gd79-01-07d3t02.flac:22661ab7a5570370e527532d5164a357
gd79-01-07d3t03.flac:7c3f1354fe50b0c81fd7310ed2e9521d
gd79-01-07d3t04.flac:a9b4f5831f0c73a804fe4531dd0e0ffd
gd79-01-07d3t05.flac:bf935017c944dbe48958fc180b1d2d0a

Comments
Add Comment
Other Sources (comments)
AUD> MC> DAT> CDR; via... (0)
Date User Comment