Browse Collections Artists Sources   Search Dates

Add Show    List Management    Help


Grateful Dead 04/15/83
Community War Memorial Auditorium, Rochester, NY
Comments Add Comment    Source Collectors    Add to Collection    Add to Want List    History
Source # 87753 Other Sources
Entered by Matt Vernon
Checksums ffp , flac-md5
Disc Counts 4 / 0
Media Size
Date Circulated
Date Added
10/20/2007
10/20/2007
Source Summary flac24; Recording Info: (FOB) Audio Technica Mics -> Cassette Master (Sony D6/Maxell UDXL-II) Transfer Info: Cassette Master (Namamichi DR-1) -> Apogee MiniMe (24bit/48k) -> Samplitude Professional v9.11 -> FLAC/24 Recorded and Transfered By Charlie Miller 
  Archive
Source Information - Download Text | Download Zip
Grateful Dead - April 15, 1983
War Memorial Auditorium - Rochester, NY
**THIS IS A 24-BIT RECORDING**

Recording Info:
(FOB) Audio Technica Mics -> Cassette Master (Sony D6/Maxell UDXL-II)

Transfer Info:
Cassette Master (Namamichi DR-1) -> Apogee MiniMe (24bit/48k) ->
Samplitude Professional v9.11 -> FLAC/24

Recorded and Transfered By Charlie Miller
[email protected]
October 16, 2007

Patch Info:
(FOB) Sennheiser 421 -> Cassette Master -> Dat -> CD (shnid=9974) supplies:
Little Star (0:32 - 0:37)
Drums (0:16 - end of track)
Space (0:00 - 1:47)
Around And Around (0:50 - 1:03)

Notes:
-- Set 2 is seamless
-- This is a 24-bit recording, 16-bit version also circulates
-- Recorded 15 feet in front of sbd, about 10 feet to the right
-- This was the first Grateful Dead show I taped
-- Patch source was slightly EQ'd to better match my tape
-- Unpatched cut during first few seconds of Around And Around

Set One:
d1t01 - Tuning
d1t02 - Shakedown Street
d1t03 - My Brother Esau
d1t04 - Brown Eyed Women
d1t05 - Little Red Rooster
d1t06 - Dire Wolf
d1t07 - Lazy Lightning ->
d1t08 - Supplication ->
d1t09 - Deal

Set Two:
s2t01 - Tuning
s2t02 - Feel Like A Stranger
s2t03 - Samson And Delilah
s2t04 - Ship Of Fools
s2t05 - Maybe You Know
s2t06 - He's Gone ->
s2t07 - Bob Star ->
s2t08 - Drums ->
s2t09 - Space ->
s2t10 - Throwing Stones ->
s2t11 - Not Fade Away ->
s2t12 - Goin' Down The Road Feeling Bad ->
s2t13 - Around And Around ->
s2t14 - Johnny B. Goode

Encore:
s2t15 - It's All Over Now, Baby Blue


SHNTOOL OUTPUT:
    length     expanded size   cdr  WAVE problems filename
     3:51.453      66658604    cxx   --   ---xx   gd83-04-15s1t01.flac
    14:00.493     242062124    cxx   --   ---xx   gd83-04-15s1t02.flac
     7:07.680     123171884    cxx   --   ---xx   gd83-04-15s1t03.flac
     6:58.160     120430124    cxx   --   ---xx   gd83-04-15s1t04.flac
     9:35.320     165692204    cxx   --   ---xx   gd83-04-15s1t05.flac
     4:08.293      71508524    cxx   --   ---xx   gd83-04-15s1t06.flac
     3:46.800      65318444    cxx   --   ---xx   gd83-04-15s1t07.flac
     6:38.520     114773804    cxx   --   ---xx   gd83-04-15s1t08.flac
     7:44.400     133747274    cxx   --   ---xx   gd83-04-15s1t09.flac
     1:00.373      17387564    cxx   --   ---xx   gd83-04-15s2t01.flac
     9:06.133     157286444    cxx   --   ---xx   gd83-04-15s2t02.flac
     9:29.160     163918124    cxx   --   ---xx   gd83-04-15s2t03.flac
     8:38.453     149314604    cxx   --   ---xx   gd83-04-15s2t04.flac
     5:03.000      87264044    cxx   --   ---xx   gd83-04-15s2t05.flac
    13:01.733     225139244    cxx   --   ---xx   gd83-04-15s2t06.flac
     5:58.467     103238444    cxx   --   ---xx   gd83-04-15s2t07.flac
     5:45.213      99421484    cxx   --   ---xx   gd83-04-15s2t08.flac
    12:16.773     212190764    cxx   --   ---xx   gd83-04-15s2t09.flac
     9:46.227     168833324    cxx   --   ---xx   gd83-04-15s2t10.flac
     6:02.227     104321324    cxx   --   ---xx   gd83-04-15s2t11.flac
     6:52.947     118928684    cxx   --   ---xx   gd83-04-15s2t12.flac
     3:37.400      62611244    cxx   --   ---xx   gd83-04-15s2t13.flac
     4:33.267      78700844    cxx   --   ---xx   gd83-04-15s2t14.flac
     7:13.471     124839680    cxx   --   ---xx   gd83-04-15s2t15.flac
   172:15.964    2976758802 B                     (totals for 24 files)
Show Checksums
ffp
gd83-04-15s1t01.flac:4406f0fd5067c61cf6590f3bf13eec46
gd83-04-15s1t02.flac:2ba547fa7238b64b4750cd44749ae780
gd83-04-15s1t03.flac:b87b2100f3df1ab96c213af3fdd43fe0
gd83-04-15s1t04.flac:935fb8701cd82f1329e556847c353b13
gd83-04-15s1t05.flac:ee29ae6e881f7674875eb135804885ce
gd83-04-15s1t06.flac:f094e1b094d8dd43dfc3fb5b6f0642fe
gd83-04-15s1t07.flac:53391abf093466edf5457046f7278074
gd83-04-15s1t08.flac:6877e1c8a465001d5243edd2bc6eda65
gd83-04-15s1t09.flac:011f0b12a542f2dbf539678a7afb285c
gd83-04-15s2t01.flac:b0ea5275707267eb104a81f955124769
gd83-04-15s2t02.flac:4dd6de57cda9551293ba7cecde96e2c7
gd83-04-15s2t03.flac:f437082d35fadd476c194fa7280340d0
gd83-04-15s2t04.flac:c846ad13053b2f531c56f922b4fc0391
gd83-04-15s2t05.flac:a43424aebb2bf7290d804ad12fafbb8d
gd83-04-15s2t06.flac:f92d3f3371c03c63250bfdfda726bde7
gd83-04-15s2t07.flac:57f3a56d2aeb587f719c3d7bf7b66bcf
gd83-04-15s2t08.flac:c3b6acbc9758eba8a5681fe8c34cdbd4
gd83-04-15s2t09.flac:c005957519700a903be4142076dd67c3
gd83-04-15s2t10.flac:efc496c5a7822ac50f857555883d0b7e
gd83-04-15s2t11.flac:471616de58685a4a80386a757b97fd97
gd83-04-15s2t12.flac:57e4f1e86875d006d4f127273628eda4
gd83-04-15s2t13.flac:d1574c9e8ae50f3f98a0c8831bb59bec
gd83-04-15s2t14.flac:75bbc05aba8cef7e6f6222ddf271f5ce
gd83-04-15s2t15.flac:7c46e782813e3c56cad0464b79074be5
flac-md5
b79b86d99f3561c675c79d9f3118363b *gd83-04-15s1t01.flac
c613a2df409cce3dc600fd90ce1943c1 *gd83-04-15s1t02.flac
1c6ba04259d3616a4114ca9335ab725a *gd83-04-15s1t03.flac
490415f8b6a129108b574115c772a961 *gd83-04-15s1t04.flac
6d36de02d072c9a87a75efa1de746804 *gd83-04-15s1t05.flac
6c43f2e4e6a0df20ea0f48166ac92714 *gd83-04-15s1t06.flac
2d16f7b0a76c88ced2934bb6e233c4cf *gd83-04-15s1t07.flac
c29cf0633839da476bc83f7fe94b1f7d *gd83-04-15s1t08.flac
3b9a260d1f93aa1e84135936df2a2895 *gd83-04-15s1t09.flac
b39cfe1d16dc2bb5cc0591ba72cbff33 *gd83-04-15s2t01.flac
750e761b637c852df17b6748adf0122a *gd83-04-15s2t02.flac
a0884b4084d046dfaa1835f1d766ead6 *gd83-04-15s2t03.flac
eb7260f0558ef44f1ef845c412ed3b7f *gd83-04-15s2t04.flac
f7b551c91bea1cd551e8d73e016c2f33 *gd83-04-15s2t05.flac
cf0c9051db9429bd646e99e999859cfd *gd83-04-15s2t06.flac
be0affe82828cad109860549846e6434 *gd83-04-15s2t07.flac
4cc8e104f033479648b6c4269a4cc667 *gd83-04-15s2t08.flac
8b02a59d29639de5b735a03d482699b2 *gd83-04-15s2t09.flac
97b37ca7c5d6d0a251f9d5a7429c67dd *gd83-04-15s2t10.flac
08afc38ca58e5b8ddea1958053b206a7 *gd83-04-15s2t11.flac
f76c7af43a7016b5285413816504e0f9 *gd83-04-15s2t12.flac
69dc4dac01bd6dded38589460c83fa85 *gd83-04-15s2t13.flac
701b90d54c2fb6222e8171402c830e45 *gd83-04-15s2t14.flac
4b39c7a4bb4b24c18c26f3c0407f62ef *gd83-04-15s2t15.flac

Comments
Add Comment
Other Sources (comments)
Senn. 421?s > MC>DAT>CD;... (0) 2nd set; SBD>PCM>DAT>Sonic... (1) (FOB) Audio Technica Mics... (0) Recording Info: Set 1: SBD... (0) flac16; Recording... (0) flac16;... (0) flac16;Recording... (0) flac24; Recording... (0) flac16; AUD:... (0) flac16; 2 source... (0) flac16; Set 2... (0) flac16; aud cassette... (0) flac24; aud cassette... (0) flac24; source:... (0) flac16/44.1 ... (0) flac24/48 ... (0) flac16/44.1 ... (0) flac24/48 ... (0) flac24; Recording... (0)
Date User Comment