Browse Collections Artists Sources   Search Dates

Add Show    List Management    Help


Grateful Dead 04/22/83
Veterans' Memorial Coliseum, New Haven, CT
Comments Add Comment    Source Collectors    Add to Collection    Add to Want List    History
Source # 88088 Other Sources
Entered by Matt Vernon
Checksums ffp , flac-md5
Disc Counts 2 / 3
Media Size
Date Circulated
Date Added
10/30/2007
10/30/2007
Source Summary flac16; Source:2-Sennheiser MD421's>Sony D5 Location: FOB-14th row DFC @6 ft high on stand Taper: Rick "Coyotte" Colyard 2 maxell xl2's-cassette MASTERS Transfer: Sony ES-950>Edirol Digi-Mod [email protected]>Optical out>>Nomad JB3>WAV>Poulderbits Sound Editor for (fades/cuts)> FlacFrontend (level-8)>flac-16 Transfered and edited by muletaper 10/07 
  Archive
Source Information - Download Text | Download Zip
Grateful Dead
04/22/1983 (Fri)
Veterans' Memorial Coliseum
New Haven, CT

Release #2 from Coyotte's Vault
Source:2-Sennheiser MD421's>Sony D5 > 2 maxell xl2's-cassette MASTERS
Location: FOB-14th row DFC @6 ft high on stand
Taper: Rick "Coyotte"Colyard
Released 10/29/07
Transfer: Sony ES-950>Edirol Digi-Mod [email protected]>Optical out>>Nomad JB3>WAV>Poulderbits Sound Editor for (fades/cuts)> FlacFrontend (level-8)>flac-16
Transfered and edited by muletaper 10/07


Set 1:
01. Finiculi Finicula,
02. Feel Like A Stranger,
03. Bird Song >
04. C C Rider,
05. RowJimmy,
06.  Mama Tried >
07. Mexicali Blues,
08. Cold Rain & Snow,
09. My Brother Esau >
10. Deal

Set 2:
01. Help On The Way > Slipknot >
02. Franklin's Tower >
03. Samson & Delilah,
04. Ship of Fools >
05. Man Smart, (Woman Smarter) >
06. Space >
07. Drums >
08. Space >
09. Truckin' >
10. Spoonful >
11. Stella Blue >
12. Around and Around >
13. Good Lovin'
E:
14. It's All Over Now, Baby Blue

NOTES
-End of ship of fools complete but spliced at end(no loss)
-woman are smarter beginning cut fades in(tapeflip)
- the last 3 songs on d3 the beginnings are blended in,they were on separate tapes(for more space)-nothing lost,just spliced.
- there may be a blemish or 2 but the show is complete.
- never sell/trade freely
- no hiss reduction,noise editing or digital audio editing.
- if you dont like the way it sounds YOU can fix it,permission pre-approved!!
- enjoy and play loudly!!

    length     expanded size    cdr  WAVE problems  fmt   ratio  filename
     1:48.06       19065356 B   ---   --   ---xx   flac  0.5259  gd1983-4-22d1t01.flac
    10:39.41      112816076 B   ---   --   ---xx   flac  0.6022  gd1983-4-22d1t02.flac
    11:02.17      116816828 B   ---   --   ---xx   flac  0.5963  gd1983-4-22d1t03.flac
    10:01.41      106112876 B   ---   --   ---xx   flac  0.6015  gd1983-4-22d1t04.flac
     9:47.28      103612700 B   ---   --   ---xx   flac  0.5950  gd1983-4-22d1t05.flac
     4:09.57       44057708 B   ---   --   ---xx   flac  0.6357  gd1983-4-22d1t06.flac
     5:04.22       53677388 B   ---   --   ---xx   flac  0.6684  gd1983-4-22d1t07.flac
     6:57.32       73634108 B   ---   --   ---xx   flac  0.6606  gd1983-4-22d1t08.flac
     6:03.28       64099100 B   ---   --   ---xx   flac  0.6525  gd1983-4-22d1t09.flac
     8:58.69       95065532 B   ---   --   ---xx   flac  0.6672  gd1983-4-22d1t10.flac
     9:38.09      101980412 B   ---   --   ---xx   flac  0.6495  gd1983-4-22d2t01.flac
    11:39.24      123360092 B   ---   --   ---xx   flac  0.6632  gd1983-4-22d2t02.flac
     9:22.34       99216812 B   ---   --   ---xx   flac  0.6564  gd1983-4-22d2t03.flac
     7:16.71       77077436 B   ---   --   ---xx   flac  0.6234  gd1983-4-22d2t04.flac
     6:05.06       64400156 B   ---   --   ---xx   flac  0.6879  gd1983-4-22d2t05.flac
     5:09.14       54540572 B   ---   --   ---xx   flac  0.6176  gd1983-4-22d2t06.flac
     4:30.53       47752700 B   ---   --   ---xx   flac  0.6285  gd1983-4-22d2t07.flac
    11:54.72      126118988 B   ---   --   ---xx   flac  0.5933  gd1983-4-22d2t08.flac
     6:58.01       73737596 B   ---   --   ---xx   flac  0.7017  gd1983-4-22d3t01.flac
     2:51.63       30312620 B   ---   --   ---xx   flac  0.6536  gd1983-4-22d3t02.flac
     9:10.25       97078844 B   ---   --   ---xx   flac  0.6632  gd1983-4-22d3t03.flac
     3:55.66       41609276 B   ---   --   ---xx   flac  0.6869  gd1983-4-22d3t04.flac
     8:52.48       93957740 B   ---   --   ---xx   flac  0.6942  gd1983-4-22d3t05.flac
     8:17.20       87717884 B   ---   --   ---xx   flac  0.6474  gd1983-4-22d3t06.flac
   180:15.22     1907818800 B                            0.6402  (24 files)
Show Checksums
ffp
gd1983-4-22d1t01.flac:df00b926847bf286203712036f83a835
gd1983-4-22d1t02.flac:5a518599fe54ed1023a232c16af2d49c
gd1983-4-22d1t03.flac:9dc169a90ec2336a0679f1a4bb90d76c
gd1983-4-22d1t04.flac:42078a32770ce055c920879007eddad5
gd1983-4-22d1t05.flac:49d781c5b25c57e05c2929cab0f56f68
gd1983-4-22d1t06.flac:1820e0502dbf225fa1d8ee1868617ddb
gd1983-4-22d1t07.flac:91344004848534e1262b7a418ce228c3
gd1983-4-22d1t08.flac:911497fbe61d1665060e1bb08b97e18f
gd1983-4-22d1t09.flac:235c9c461e5811cc7ed86c649944f5d7
gd1983-4-22d1t10.flac:1c79059602a2ad04ee21a821e55f0b0e
gd1983-4-22d2t01.flac:bf0e26d37f3e4fc8ca97399818d9fb69
gd1983-4-22d2t02.flac:250d2e1e719709db44c767739c556939
gd1983-4-22d2t03.flac:98d80663366b1325f2015258005f1b31
gd1983-4-22d2t04.flac:a7312aa66acdb4a947bfad6d04a39b65
gd1983-4-22d2t05.flac:7a80b0edddbbdbceda7b36e5b58db51f
gd1983-4-22d2t06.flac:4c93f7abfd5b3a0262b0d4140ab64d51
gd1983-4-22d2t07.flac:b1db5e595fb266906fe0b3c904e67994
gd1983-4-22d2t08.flac:5740e1d08d32334098efac0eed8f1ce7
gd1983-4-22d3t01.flac:87e5944ee1748cc3477cb4252fc0750c
gd1983-4-22d3t02.flac:9244f56b2a9be2d47790a39a1ad63e09
gd1983-4-22d3t03.flac:f1419ce481effd18a1a3a62b51d3bed5
gd1983-4-22d3t04.flac:efd82be9b744ed82ca51c207b4d7aac2
gd1983-4-22d3t05.flac:2337b4be766895b9f0191f0a65757aa3
gd1983-4-22d3t06.flac:ba95be7b21a690492a50f5073131f8e7
flac-md5
709b74b45c59c472c7f682b759396c0e *gd1983-4-22d1t01.flac
8c88d7546b063e30a5d3f068a2a5148f *gd1983-4-22d1t02.flac
ab1889778ad5fe8b7c7cdbcaa63146fd *gd1983-4-22d1t03.flac
8a6cc9f14361caf7368e0595cbc1ba47 *gd1983-4-22d1t04.flac
351201a00eb0f582097230bd04fc9880 *gd1983-4-22d1t05.flac
633deaf07d169d303a2918480897d07c *gd1983-4-22d1t06.flac
e228657a76a701015d92e774572fc765 *gd1983-4-22d1t07.flac
4899bc32d5bb760a10ab63b5a0197713 *gd1983-4-22d1t08.flac
015535989e406ec27005cce615410dc0 *gd1983-4-22d1t09.flac
b3d878f3e5e307a5e28ab5025a1d0f12 *gd1983-4-22d1t10.flac
a19b7d5be6cf511ba0efa3758e20601c *gd1983-4-22d2t01.flac
c4dfd6bc458894a5fda6455cc01d9f4c *gd1983-4-22d2t02.flac
d5a23959b841d4e81684928f39ad6b5a *gd1983-4-22d2t03.flac
056407df31a942c8871905f4cad44e6a *gd1983-4-22d2t04.flac
785d0cbbec6e253e31704f4a7cdc2332 *gd1983-4-22d2t05.flac
bda2d1d9b3787b9e62570005d4e54c21 *gd1983-4-22d2t06.flac
254cb87780d576fb38907ec256692986 *gd1983-4-22d2t07.flac
1b3c793440559c5c9647b4f2c5500b28 *gd1983-4-22d2t08.flac
2a1e50e95e3121a942c9ecb7b7da599f *gd1983-4-22d3t01.flac
5dae8dfe7aa68b99ed0068f09d51464c *gd1983-4-22d3t02.flac
d2e7a33c4470d65ed76a91e89661ace5 *gd1983-4-22d3t03.flac
396f2ff560c00273b6772ae57e36adc5 *gd1983-4-22d3t04.flac
423cc6853b89b74a6ce6e5ac512adfda *gd1983-4-22d3t05.flac
755e2fb971ce2306436baaac4894c77e *gd1983-4-22d3t06.flac

Comments
Add Comment
Other Sources (comments)
FOB-Sennheiser 421> Master... (1) Barry Glassberg FOB AUDMC... (0) flac16; Nakamichi... (0) flac16; Source: 2... (0) flac24; AUD: 2x... (1) flac16; AUD: 2x... (1) flac24; Updated... (0) flac16; 1st Gen AUD... (0) flac16; source: aud... (0) flac24; source: aud... (0) flac16/44.1 First... (0) flac24/48 First... (0)
Date User Comment