Browse Collections Artists Sources   Search Dates

Add Show    List Management    Help


Garcia 07/10/81
Raddison Hotel, Room 1503, St. Paul, MN
Comments Add Comment    Source Collectors    Add to Collection    Add to Want List    History
Source # 88089 Other Sources
Entered by Joe Jupille
Checksums d1 , d2
Disc Counts 1 / 2
Media Size
Date Circulated
Date Added
10/20/2007
10/30/2007
Source Summary JG Interview: Source: MC>Cx3>AIFF>WAV>SHN 
Source Information - Download Text | Download Zip
Jerry Garcia Interview
Raddison Hotel, room 1503
St. Paul, Mn.
July 10, 1981

This is one of the only candid interview tapes of Jerry in circulation. It starts with a journalist named Greg
Harrington asking some very intelligent questions about all types of topics and Jerry is very warm and generous during the interview. Later a few heads join the party and the tape keeps rolling. At one point someone sparks a jay and Jerry is inclined to smoke up with his new friends. What ensues is just hilarious as Jerry and company get progressively more stoned. This tape is a rare glimpse into the wonderful mind of Jerry Garcia. After listening to it, you will have a much better understanding of what it must have been like to be a member of the Grateful Dead, what was the process or lack of it for the band and who really is Jerry and what is his trip?

This is a wonderful part of my collection. I have seen a copy converted by someone else, but I have taken the time to convert a high bias 3rd GEN cassette to digital.

Source: MC>Cx3>AIFF>WAV>SHN

Note: Take special note to track 9 on disk 1. I Hope you enjoy Jerry's opinion on the matter of tapping shows.

Converted and Seeded by James Toland, [email protected]

Disk 1

1. Intro>reckogning album> 03:06
2. Song Selections for acoustic sets> 01:27
3. Filming of Dead Ahead and other film projects> 04:08
4. Dead Set record> 01:10
5. 15 years so far> 01:18
6. Writing with Robert Hunter> 02:55
7. Working without a net> 03:26
8. The addition of Brent to the band> 00:55
9. Jerry on tapping shows! 01:05
10. Venue breakdowns> 02:06
11. Unbroken Chain?/Jerry's car> 01:13
12. Working without a net reprise> 03:01
13. Unbroken chain rehearsal tapes> 03:50
14. Improvisation vs. formula> 03:22
15. Looking forward to 1982> 03:09
16. Have you heard about Deadbase? 01:20
17. Introductions of freaks> 00:15
18. Jerry on the Midwest> 01:54
19> Jerry smokes a jay> 02:19
20. Is the Uptown Theatre (in Chicago) Closed? 03:30

Disk 2

1. /Getting Althea right> 02:02
2. Here's the jay> 04:57
3. Bobby Wierd> 03:19
4. Touring across America> 04:25
5. Working with Phil and Micky> 04:30
6. Flying to gigs> 04:29
7. Pat calls for backstage passes> 01:49
8. Jerry bums a smoke> 02:58
9. Iko Iko and other song's mysteries> 03:22
10. Jerry on world events> 02:52
11. "This is not the right world for our trip"> 03:11
12. We got to get going 01:07
13. Althea/ (1981-07-10) 05:55

    length     expanded size   cdr  WAVE problems filename
     3:06.30       32880044    -b-   --   ---xx   Garcia1981-07-10d1t1.shn
     2:06.40       22320044    -b-   --   ---xx   Garcia1981-07-10d1t10.shn
     1:13.35       12960044    -b-   --   ---xx   Garcia1981-07-10d1t11.shn
     3:01.47       32040044    -b-   --   ---xx   Garcia1981-07-10d1t12.shn
     3:50.46       40680044    -b-   --   ---xx   Garcia1981-07-10d1t13.shn
     3:22.03       35640044    -b-   --   ---xx   Garcia1981-07-10d1t14.shn
     3:09.60       33480044    -b-   --   ---xx   Garcia1981-07-10d1t15.shn
     1:20.20       14160044    -b-   --   ---xx   Garcia1981-07-10d1t16.shn
     0:15.48        2760044    -b-   --   ---xx   Garcia1981-07-10d1t17.shn
     1:54.21       20160044    -b-   --   ---xx   Garcia1981-07-10d1t18.shn
     2:19.34       24600044    -b-   --   ---xx   Garcia1981-07-10d1t19.shn
     1:27.57       15480044    -b-   --   ---xx   Garcia1981-07-10d1t2.shn
     3:30.15       37080044    -b-   --   ---xx   Garcia1981-07-10d1t20.shn
     4:08.73       43920044    -b-   --   ---xx   Garcia1981-07-10d1t3.shn
     1:10.56       12480044    -b-   --   ---xx   Garcia1981-07-10d1t4.shn
     1:18.17       13800044    -b-   --   ---xx   Garcia1981-07-10d1t5.shn
     2:55.38       30960044    -b-   --   ---xx   Garcia1981-07-10d1t6.shn
     3:26.60       36480044    -b-   --   ---xx   Garcia1981-07-10d1t7.shn
     0:55.08        9720044    -b-   --   ---xx   Garcia1981-07-10d1t8.shn
     1:05.74       11640044    -b-   --   ---xx   Garcia1981-07-10d1t9.shn
     2:02.34       21600044    -b-   --   ---xx   Garcia1981-07-10d2t1.shn
     2:52.59       30480044    -b-   --   ---xx   Garcia1981-07-10d2t10.shn
     3:11.12       33720044    -b-   --   ---xx   Garcia1981-07-10d2t11.shn
     1:07.26       11880044    -b-   --   ---xx   Garcia1981-07-10d2t12.shn
     5:55.47       62733164    -b-   --   ---xx   Garcia1981-07-10d2t13.shn
     4:57.72       52560044    -b-   --   ---xx   Garcia1981-07-10d2t2.shn
     3:19.24       35160044    -b-   --   ---xx   Garcia1981-07-10d2t3.shn
     4:25.74       46920044    -b-   --   ---xx   Garcia1981-07-10d2t4.shn
     4:30.56       47760044    -b-   --   ---xx   Garcia1981-07-10d2t5.shn
     4:29.29       47520044    -b-   --   ---xx   Garcia1981-07-10d2t6.shn
     1:49.39       19320044    -b-   --   ---xx   Garcia1981-07-10d2t7.shn
     2:58.17       31440044    -b-   --   ---xx   Garcia1981-07-10d2t8.shn
     3:22.54       35760044    -b-   --   ---xx   Garcia1981-07-10d2t9.shn
    90:42.53         915.62 MB                    (totals for 33 files, 0.5068 overall compression ratio)
Show Checksums
d1
910276b19b1d29c92e33afc2812b4c6e *Garcia1981-07-10d1t9.shn
01a96a6be392f3bfa54ba372b5c055d6 *Garcia1981-07-10d1t8.shn
b90d1b3b60ec53f1a916d91d04fd3d03 *Garcia1981-07-10d1t7.shn
ec19990b641af90a276f860d5c28b0a7 *Garcia1981-07-10d1t6.shn
8ce38ba9e28f6bee3e6349a458a7e923 *Garcia1981-07-10d1t5.shn
344b1e83966fdb8b4c6d42a679d2feb1 *Garcia1981-07-10d1t4.shn
7a213e027f9437ed7300435481c817bc *Garcia1981-07-10d1t3.shn
753ca5be2fbc61681c5961c7e253e24b *Garcia1981-07-10d1t20.shn
dbcad5654b961798f896acde617a2c06 *Garcia1981-07-10d1t2.shn
44645182fe00e5bb5b34d8a114fa3c79 *Garcia1981-07-10d1t19.shn
262bc60801dcdb5cb9333633bbc1a5e3 *Garcia1981-07-10d1t18.shn
651995c2f8db31104c8560ff96f05bb0 *Garcia1981-07-10d1t17.shn
0bac55c01a47c803861d5e4c25165c81 *Garcia1981-07-10d1t16.shn
38ec20858172baebe11cc1caf7fea5db *Garcia1981-07-10d1t15.shn
f1bfb6edfd87b9f7514a7a9509ae3379 *Garcia1981-07-10d1t14.shn
80415aa8c65fb003ccd6b7826c3f2ee3 *Garcia1981-07-10d1t13.shn
aa8113586fde667ed3edde326da63748 *Garcia1981-07-10d1t12.shn
601ef036d3ad80c74576fd9c778a7e3e *Garcia1981-07-10d1t11.shn
47b0d7b3f59e96cb63a1d147e9061615 *Garcia1981-07-10d1t10.shn
f510d23621516cc149c64e9603e79225 *Garcia1981-07-10d1t1.shn
d2
8d946b5baa438c7a48720014900f1ab9 *Garcia1981-07-10d2t9.shn
67b26c59060ab276a8eb827cebbb0e95 *Garcia1981-07-10d2t8.shn
dd86eab85b891d12316af548f774e8fb *Garcia1981-07-10d2t7.shn
5534066a94fc7ecb264caf576470df5d *Garcia1981-07-10d2t6.shn
9c1a2fdf72a7931d3c980a7d1ce003b3 *Garcia1981-07-10d2t5.shn
414276f86fbea1ae2e0882b201f4dc78 *Garcia1981-07-10d2t4.shn
0ed7b36fad61c3c61f3588fb6482b6ab *Garcia1981-07-10d2t3.shn
94fd163f79f55f5e485ccea1b0c7a0fa *Garcia1981-07-10d2t2.shn
b9af34256c000483ebe6a46ee683b34a *Garcia1981-07-10d2t13.shn
27e5be6a6fc89fb74b507787fc848206 *Garcia1981-07-10d2t12.shn
4a5b6f4e33ca47b737c499b0bd687b5c *Garcia1981-07-10d2t11.shn
1269842bb82d594ce0eebb891d60be51 *Garcia1981-07-10d2t10.shn
8d01a0bc39a308902d24744c5a2bc389 *Garcia1981-07-10d2t1.shn

Comments
Add Comment
Other Sources (comments)
Jerry Garcia Interview:... (0) Interview; unlineaged. (0)
Date User Comment