Browse Collections Artists Sources   Search Dates

Add Show    List Management    Help


Grateful Dead 04/25/83
The Spectrum, Philadelphia, PA
Comments Add Comment    Source Collectors    Add to Collection    Add to Want List    History
Source # 88164 Other Sources
Entered by Matt Vernon
Checksums ffp , flac-md5
Disc Counts 2 / 2
Media Size
Date Circulated
Date Added
11/02/2007
11/02/2007
Source Summary flac16; Source:2-Nak 700's>Sony D5 Location: FOB-7th row DFC @6 ft high on stand(head high) Taper: Rick "Coyotte" Colyard 2 maxell UDXL2-Cassette MASTERS Transfer: Sony TCW-21(analog out)>Edirol Digi-Mod [email protected]>Optical out>>Nomad [email protected]>WAV>Poulderbits Sound Editor for (fades/cuts)>Media Join(join tape flips)>FlacFrontend (level-8)>flac-16 
  Archive
Source Information - Download Text | Download Zip
Grateful Dead
Date: 04/25/83 (Mon)
The Spectrum
Philadelphia, PA

Source:2-Nak 700's->Sony D5 > 2 maxell UDXL2-Cassette MASTERS
Location: FOB-7th row DFC @6 ft high on stand(head high)
Taper: Rick "Coyotte"Colyard
Psycho Acoustical Productions
Released 11-01-2007

Transfer: Sony TCW-21(analog out)->Edirol Digi-Mod [email protected]>Optical out->->Nomad [email protected]>WAV->Poulderbits Sound Editor for (fades/cuts)->Media Join(join tape flips)->FlacFrontend (level-8)->flac-16

Transfered and Edited by MULETAPER- 11/07

Notes.

- Tapeflip clean beween loser/esau in set 1
- Drums /cuts out->(few mins) cuts in to space at track segments.


Set 1:
1. Jack Straw
2. Friend Of The Devil
3. Little Red Rooster
4. Brown Eyed Women
5. Cassidy
6. Loser
7. My Brother Esau
8. China Cat Sunflower ->
9. I Know You Rider

Set 2:
1. Touch of Grey
2. Playing In The Band ->
3. Terrapin Station ->
4. Drums ->
5. Space ->
6. The Wheel ->
7. Playing In The Band ->
8. Goin' Down the Road Feeling Bad ->
9. Sugar Magnolia
E:
10. Satisfaction

    length     expanded size    cdr  WAVE problems  fmt   ratio  filename
     6:46.06       71632556 B   ---   --   ---xx   flac  0.6311  gd1983-04-25d1t01.flac
     8:40.15       91763324 B   ---   --   ---xx   flac  0.6296  gd1983-04-25d1t02.flac
     9:19.05       98619404 B   ---   --   ---xx   flac  0.6311  gd1983-04-25d1t03.flac
     5:18.74       56269292 B   ---   --   ---xx   flac  0.6427  gd1983-04-25d1t04.flac
     6:18.24       66735692 B   ---   --   ---xx   flac  0.6403  gd1983-04-25d1t05.flac
     6:54.28       73095500 B   ---   --   ---xx   flac  0.6341  gd1983-04-25d1t06.flac
     5:15.13       55596620 B   ---   --   ---xx   flac  0.6125  gd1983-04-25d1t07.flac
     6:31.19       69017132 B   ---   --   ---xx   flac  0.6204  gd1983-04-25d1t08.flac
     6:10.12       65296268 B   ---   --   ---xx   flac  0.6412  gd1983-04-25d1t09.flac
     6:19.09       66876812 B   ---   --   ---xx   flac  0.6586  gd1983-04-25d2t01.flac
    12:10.44      128875532 B   ---   --   ---xx   flac  0.6433  gd1983-04-25d2t02.flac
    12:05.58      128026460 B   ---   --   ---xx   flac  0.6363  gd1983-04-25d2t03.flac
     2:13.53       23585900 B   ---   --   ---xx   flac  0.6303  gd1983-04-25d2t04.flac
    13:32.04      143246252 B   ---   --   ---xx   flac  0.5987  gd1983-04-25d2t05.flac
     6:15.13       66180620 B   ---   --   ---xx   flac  0.6500  gd1983-04-25d2t06.flac
     3:05.71       32801036 B   ---   --   ---xx   flac  0.6403  gd1983-04-25d2t07.flac
     7:13.01       76383596 B   ---   --   ---xx   flac  0.6619  gd1983-04-25d2t08.flac
     5:11.05       54872204 B   ---   --   ---xx   flac  0.6624  gd1983-04-25d2t09.flac
     3:36.42       38201228 B   ---   --   ---xx   flac  0.6659  gd1983-04-25d2t10.flac
     6:47.63       71943020 B   ---   --   ---xx   flac  0.6491  gd1983-04-25d2t11.flac
   139:44.34     1479018448 B                            0.6364  (20 files)


Show Checksums
ffp
gd1983-04-25d1t01.flac:947c7ffb5ffca68f8304daf041d1d436
gd1983-04-25d1t02.flac:4e5a391b7ba642c98c610a234203d832
gd1983-04-25d1t03.flac:db98d29d8f31ff398b52dfbfb93193bf
gd1983-04-25d1t04.flac:79b89b526db89e61fcdecb6cbec33279
gd1983-04-25d1t05.flac:819b9b45c8f2160e4b4dbee5e848c0f5
gd1983-04-25d1t06.flac:393c99e1b386406651796c2684adf957
gd1983-04-25d1t07.flac:ce21e53a5fae38e7020208e4d8983068
gd1983-04-25d1t08.flac:2b641b7fabb7993723b7a15ec3dc5b8e
gd1983-04-25d1t09.flac:360948cbb60c82d2865b204ba09d4da4
gd1983-04-25d2t01.flac:155d4135a04ab74c9ae884c59cd5550d
gd1983-04-25d2t02.flac:f5304d7850c10be042927d429b59f116
gd1983-04-25d2t03.flac:309e1dc2c1a4d9e7ba62cb8bfbf07ee6
gd1983-04-25d2t04.flac:b4d36ae261f3a9a69e9c86485e8fed04
gd1983-04-25d2t05.flac:c32c5d88680dacae4c69386b93d14239
gd1983-04-25d2t06.flac:c9c3d8a86f624c08fdb9d5f2e93cf393
gd1983-04-25d2t07.flac:7aefa81e9b6b0c0eb05799afc4ddda25
gd1983-04-25d2t08.flac:af558afe000a7959012f0590105dd261
gd1983-04-25d2t09.flac:6c054ce1c4c462c802d8587855fbf753
gd1983-04-25d2t10.flac:cc913b36ab5e4ed19b15a0d5d6805661
gd1983-04-25d2t11.flac:78d59a9964335147b35f1551b2671359
flac-md5
fcdabeaaace43b770fa8c4eb5a13814f *gd1983-04-25d1t01.flac
c28bd6427ee6f2c2e07af43a8a3f68c5 *gd1983-04-25d1t02.flac
437730973c3bb166958d84749228812b *gd1983-04-25d1t03.flac
c7e4d90425aac92933f2fe61621a3eea *gd1983-04-25d1t04.flac
fa3b5117893a01ea7b32d1d0fc1028a4 *gd1983-04-25d1t05.flac
626d5d1bfb07ffb1e00d3575f2ba8d7b *gd1983-04-25d1t06.flac
9fcd1efae423a2f9c0349ff00868b3ca *gd1983-04-25d1t07.flac
fb812e76cd8848f0bc2e139feddc3ccf *gd1983-04-25d1t08.flac
d33ec0deac0d7fc41a216822a623a786 *gd1983-04-25d1t09.flac
15da3971ae77637220013d2380328b18 *gd1983-04-25d2t01.flac
cd45e18c4ec40836f2742b6d21847520 *gd1983-04-25d2t02.flac
46503576ce4d28c58ad327df9b82f132 *gd1983-04-25d2t03.flac
db1873d16008b705019c5ee32d01481c *gd1983-04-25d2t04.flac
e4cb4bf950a54fb83a785911130f31a1 *gd1983-04-25d2t05.flac
0c8aa9b3ec630c50f55b2d2896bb8e27 *gd1983-04-25d2t06.flac
00e4afd31fc67792fce6360ce64b193c *gd1983-04-25d2t07.flac
d4452597f3eaf08e8f253de527ddcd77 *gd1983-04-25d2t08.flac
d2c266d5a0c0bba670a58befa6bb0d3f *gd1983-04-25d2t09.flac
992c4d281809179f226f64e00b60a0b2 *gd1983-04-25d2t10.flac
195387bde8fc61231846c5ad61bc2f9e *gd1983-04-25d2t11.flac

Comments
Add Comment
Other Sources (comments)
Source: Senn 421's > MC >... (0) flac16: Recorded by... (1) flac16; Set 1... (0) flac24; Set 1... (0) flac24; AUD:... (0) flac16; AUD:... (0) flac24; Master... (0) flac16; Master... (0)
Date User Comment