Browse Collections Artists Sources   Search Dates

Add Show    List Management    Help


Grateful Dead 08/19/80
Uptown Theater, Chicago, IL
Comments Add Comment    Source Collectors    Add to Collection    Add to Want List    History
Source # 88172 Other Sources
Entered by Gary Field
Checksums ffp , flac-md5
Disc Counts 2 / 3
Media Size
Date Circulated
Date Added
11/02/2007
11/02/2007
Source Summary flac16; Recording Info: Set 1: SBD -> Cassette Master -> ? -> Cassette Set 2: SBD -> Cassette Master -> ? -> Dat (48k) Transfer Info: Set 1: Cassette -> Apogee MiniMe -> Samplitude Professional v9.11 -> FLAC Set 2: Dat (Sony R500) -> Samplitude Professional v9.11 -> FLAC All Transfers and Mastering By Charlie Miller 
  Archive
Source Information - Download Text | Download Zip
Grateful Dead - August 19, 1980
Uptown Theatre - Chicago, IL

Recording Info:
Set 1: SBD -> Cassette Master -> ? -> Cassette
Set 2: SBD -> Cassette Master -> ? -> Dat (48k)

Transfer Info:
Set 1: Cassette -> Apogee MiniMe -> Samplitude Professional v9.11 -> FLAC
Set 2: Dat (Sony R500) -> Samplitude Professional v9.11 -> FLAC
(3 Discs Audio / 2 Discs FLAC)

All Transfers and Mastering By Charlie Miller
[email protected]
November 1, 2007

Patch Info:
Nakamichi 700 -> Cassette Master -> Dat -> CD (shnid=8739) supplies:
Tuning (1:04 - 1:11)
Mississippi Half-Step Uptown Toodeloo (0:00 - 0:06)
Feel Like A Stranger (4:12 - end of song)
Eyes Of The World (12:14 - end of song)
Drums (complete track)
Space (complete track)
Playing In The Band (0:00 - 6:03)

Notes:
-- All disc changes are seamless
-- Be warned...poor quality sbd of a great show
-- Thanks to chopper 7 and lilrichwhiteboy for the tapes
-- Tried to get pitch to match, but it was too hard (feel free to fix it)

Set 1:
d1t01 - Tuning
d1t02 - Mississippi Half-Step Uptown Toodeloo ->
d1t03 - Franklin's Tower ->
d1t04 - New Minglewood Blues
d1t05 - Dire Wolf
d1t06 - Cassidy
d1t07 - Row Jimmy
d1t08 - Me And My Uncle ->
d1t09 - Big River
d1t10 - Althea
d1t11 - Easy To Love You
d2t01 - Feel Like A Stranger

Set 2:
d2t02 - Little Red Rooster ->
d2t03 - China Cat Sunflower ->
d2t04 - I Know You Rider ->
d2t05 - Estimated Prophet ->
d2t06 - Eyes Of The World ->
d2t07 - Drums ->
d3t01 - Space ->
d3t02 - Playing In The Band ->
d3t03 - Comes A Time ->
d3t04 - Playing In The Band ->
d3t05 - Around And Around ->
d3t06 - Alabama Getaway

Encore:
d3t07 - Johnny B. Goode


SHNTOOL OUTPUT:
    length     expanded size   cdr  WAVE problems filename
     1:11.11       12550316    ---   --   -----   gd80-08-19d1t01.wav
     9:38.58      102095660    ---   --   -----   gd80-08-19d1t02.wav
    11:53.27      125836748    ---   --   -----   gd80-08-19d1t03.wav
     9:15.65       98054924    ---   --   -----   gd80-08-19d1t04.wav
     5:01.26       53157596    ---   --   -----   gd80-08-19d1t05.wav
     4:40.38       49481420    ---   --   -----   gd80-08-19d1t06.wav
    11:58.29      126723452    ---   --   -----   gd80-08-19d1t07.wav
     3:02.49       32220092    ---   --   -----   gd80-08-19d1t08.wav
     7:40.09       81165212    ---   --   -----   gd80-08-19d1t09.wav
     8:36.28       91088300    ---   --   -----   gd80-08-19d1t10.wav
     5:11.67       55018028    ---   --   -----   gd80-08-19d1t11.wav
     8:35.44       90949532    ---   --   -----   gd80-08-19d2t01.wav
     7:26.58       78810860    ---   --   -----   gd80-08-19d2t02.wav
     5:49.34       61643612    ---   --   -----   gd80-08-19d2t03.wav
     5:59.35       63409964    ---   --   -----   gd80-08-19d2t04.wav
     9:49.51      104019596    ---   --   -----   gd80-08-19d2t05.wav
    13:23.42      141748028    ---   --   -----   gd80-08-19d2t06.wav
    13:13.67      140042828    ---   --   -----   gd80-08-19d2t07.wav
     1:05.48       11578940    ---   --   -----   gd80-08-19d3t01.wav
     9:18.00       98431244    ---   --   -----   gd80-08-19d3t02.wav
     9:46.61      103513916    ---   --   -----   gd80-08-19d3t03.wav
     5:40.33       60053660    ---   --   -----   gd80-08-19d3t04.wav
     4:04.50       43159244    ---   --   -----   gd80-08-19d3t05.wav
     7:41.43       81421580    ---   --   -----   gd80-08-19d3t06.wav
     4:20.36       45948716    ---   --   -----   gd80-08-19d3t07.wav
   184:26.34     1952123468 B                     (totals for 25 files)
Show Checksums
ffp
gd80-08-19d1t01.flac:cb30d1cf3ca5ba5eade1eab0634d0337
gd80-08-19d1t02.flac:ef8f06598e380573cc73f03401c522ae
gd80-08-19d1t03.flac:2a334793d16ee819839d087d8c5ecbd7
gd80-08-19d1t04.flac:5a523aa06e934d3082ded7d377c56c76
gd80-08-19d1t05.flac:dbd339167ff16da2640a211990714aca
gd80-08-19d1t06.flac:a5a43c5508fd8adb4e035c5f823d462f
gd80-08-19d1t07.flac:9fffed3f9daf90d8d8ccac3836048fa9
gd80-08-19d1t08.flac:dfb20e17d34a6bb2445bc82e1c92fa92
gd80-08-19d1t09.flac:e27bc8b4c7ceb50c3d826e8cc6dfe9c0
gd80-08-19d1t10.flac:47381f0771eee06da672317a19fbefc6
gd80-08-19d1t11.flac:139bce3787974250beeedf9850cd7905
gd80-08-19d2t01.flac:f50efefc301913b840f6bea10de83f38
gd80-08-19d2t02.flac:4c8bd5eaa8d2ea599761a3f09ead8f99
gd80-08-19d2t03.flac:be3d85d3579eb2286c1fe54912255f7a
gd80-08-19d2t04.flac:6b1dddef107ea03fa67aaf8e004fca29
gd80-08-19d2t05.flac:811631707a2b69fa8883c881e626cd1c
gd80-08-19d2t06.flac:0e52537f76b9341ea4581c9c82666b4a
gd80-08-19d2t07.flac:504970628a2549cefb12a1133ed758ee
gd80-08-19d3t01.flac:3eb802ef41794fb66e9d8c1e7acea1ed
gd80-08-19d3t02.flac:2f6e53893dfa7a12f8b14edef445b1e0
gd80-08-19d3t03.flac:3719e77e87e48896df49a3c5badb52fc
gd80-08-19d3t04.flac:0dfed4a267958825d17e510cfb1bd08f
gd80-08-19d3t05.flac:70f13b077c7b0480c8af05a8da6e8101
gd80-08-19d3t06.flac:b2c04f23cc4613e622b90052584f08d4
gd80-08-19d3t07.flac:6b813cf30f53bc8818f49cbfd801f2e5
flac-md5
21dff93b3c507e805e7134d792f1764d *gd80-08-19d1t01.flac
b8731e125223d671c5baaf108a9c2ae9 *gd80-08-19d1t02.flac
0521dfdd507d2cd047f7281c3dbd5d85 *gd80-08-19d1t03.flac
bf00cb65fc42d2c33c5168ca2661e2f9 *gd80-08-19d1t04.flac
7b7bec571ab2d7bd03087bebea7b0d54 *gd80-08-19d1t05.flac
d0f6bef79be921952d501b59f3c57dba *gd80-08-19d1t06.flac
35529a57b40c6f3ebd2e0ecd2e3fc822 *gd80-08-19d1t07.flac
099effc64a1663fde3e9dfd1fbc1f8e0 *gd80-08-19d1t08.flac
79000274096b3b931f0fb49bb0d8bc89 *gd80-08-19d1t09.flac
916247fbf2a3f5af480d2061016d80d2 *gd80-08-19d1t10.flac
0bfd0368b743a4c81c752ee8227aef85 *gd80-08-19d1t11.flac
99eedb88d56e9208f5e563c8a1e6757a *gd80-08-19d2t01.flac
56fff75edac86df169234fd4d05e50d2 *gd80-08-19d2t02.flac
f6e8b8146c1be115db0fc67a4d565057 *gd80-08-19d2t03.flac
a74e267d434323c5ea781dd47e5c7544 *gd80-08-19d2t04.flac
7aeb7d9cc87a4ff5c3972710274ef860 *gd80-08-19d2t05.flac
a33da05d51ab6eed77eb3a7b35110c23 *gd80-08-19d2t06.flac
1da3e46330bcb4a1b26d660ba5101678 *gd80-08-19d2t07.flac
44b76883241926530a6b8511e037b073 *gd80-08-19d3t01.flac
f0fd25e0c4c185fedef670a6a2862193 *gd80-08-19d3t02.flac
800457200da1974871ce34dfb9dcb659 *gd80-08-19d3t03.flac
a0f0f35c2a0fa25f4e7c0aa44b95492c *gd80-08-19d3t04.flac
f192713d4dcb9897e140b0bdd5e0fb0b *gd80-08-19d3t05.flac
d00d5f80dd2d6dfdc051ba671ea495bc *gd80-08-19d3t06.flac
882c0ea84a372f1d723fa9e0ae0c51f7 *gd80-08-19d3t07.flac

Comments
Add Comment
Other Sources (comments)
Recording by Dougal... (2) set 2p; SBD > Cass(m) >... (0) flac24; Set 1... (0) flac16; Partial;... (0) flac16/48kHz; Set 2... (0)
Date User Comment
01/13/2008 charlie miller 2nd set dat came labeled SBD>Cass(m)>Cass>reel>DAT.