Browse Collections Artists Sources   Search Dates

Add Show    List Management    Help


Grateful Dead 04/30/89
Irvine Meadows, Irvine, CA
Comments Add Comment    Source Collectors    Add to Collection    Add to Want List    History
Source # 88173 Other Sources
Entered by Matt Vernon
Checksums ffp , flac-md5
Disc Counts 2 / 3
Media Size
Date Circulated
Date Added
11/02/2007
11/02/2007
Source Summary flac16; Recording Info: SBD -> Cassette Master (TDK MA-XG90) Transfer Info: Cassette Master (Nakamichi DR-1) -> Apogee MiniMe (24bit/48k) -> Samplitude Professional v9.11 -> FLAC/16 All Transfers and Mastering By Charlie Miller 
  Archive
Source Information - Download Text | Download Zip
Grateful Dead - April 30, 1989
Irvine Meadows - Laguna Hills, CA

Recording Info:
SBD -> Cassette Master (TDK MA-XG90)

Transfer Info:
Cassette Master (Nakamichi DR-1) -> Apogee MiniMe (24bit/48k) ->
Samplitude Professional v9.11 -> FLAC/16
(3 Discs Audio / 2 Discs FLAC)

All Transfers and Mastering By Charlie Miller
[email protected]
November 1, 2007

Notes:
-- Set 2 is seamless
-- Thanks to Paul Scotton and Joani Walker for the tapes

Set 1:
d1t01 - Tuning
d1t02 - Mississippi Half-Step Uptown Toodeloo ->
d1t03 - Wang Dang Doodle
d1t04 - Stagger Lee
d1t05 - When I Paint My Masterpiece
d1t06 - Tennessee Jed
d1t07 - We Can Run
d1t08 - Picasso Moon ->
d1t09 - Deal

Set 2:
d2t01 - Tuning
d2t02 - Box Of Rain
d2t03 - Iko Iko
d2t04 - Estimated Prophet ->
d2t05 - Eyes Of The World ->
d2t06 - Drums ->
d3t01 - Space ->
d3t02 - Truckin' ->
d3t03 - Gimme Some Lovin' ->
d3t04 - Stella Blue ->
d3t05 - Around And Around ->
d3t06 - Good Lovin'

Encore:
d3t07 - It's All Over Now, Baby Blue


SHNTOOL OUTPUT:
    length     expanded size   cdr  WAVE problems filename
     1:38.65       17440124    ---   --   -----   gd89-04-30d1t01.wav
     7:35.25       80320844    ---   --   -----   gd89-04-30d1t02.wav
     7:45.30       82096604    ---   --   -----   gd89-04-30d1t03.wav
     5:32.25       58623644    ---   --   -----   gd89-04-30d1t04.wav
     5:59.61       63471116    ---   --   -----   gd89-04-30d1t05.wav
     8:21.62       88522268    ---   --   -----   gd89-04-30d1t06.wav
     5:42.60       60469964    ---   --   -----   gd89-04-30d1t07.wav
     5:35.70       59258684    ---   --   -----   gd89-04-30d1t08.wav
     8:34.21       90719036    ---   --   -----   gd89-04-30d1t09.wav
     0:32.08        5663660    ---   --   -----   gd89-04-30d2t01.wav
     5:09.23       54561740    ---   --   -----   gd89-04-30d2t02.wav
     8:12.64       86939372    ---   --   -----   gd89-04-30d2t03.wav
    12:09.20      128642684    ---   --   -----   gd89-04-30d2t04.wav
    13:53.68      147101180    ---   --   -----   gd89-04-30d2t05.wav
    10:40.46      113004236    ---   --   -----   gd89-04-30d2t06.wav
    13:21.59      141435212    ---   --   -----   gd89-04-30d3t01.wav
     7:09.17       75715628    ---   --   -----   gd89-04-30d3t02.wav
     5:18.32       56170508    ---   --   -----   gd89-04-30d3t03.wav
     8:09.15       86294924    ---   --   -----   gd89-04-30d3t04.wav
     4:37.05       48874604    ---   --   -----   gd89-04-30d3t05.wav
     8:10.52       86558348    ---   --   -----   gd89-04-30d3t06.wav
     7:28.10       79050764    ---   --   -----   gd89-04-30d3t07.wav
   161:39.13     1710935144 B                     (totals for 22 files)
Show Checksums
ffp
gd89-04-30d1t01.flac:c79e3466d20cb9b9dbe0cff7eb3670a5
gd89-04-30d1t02.flac:631936f81cda4be281f7b9101ce60d4d
gd89-04-30d1t03.flac:dd31c6470dec193b529e56f7c8cfa7ab
gd89-04-30d1t04.flac:a62d56a9098480c04a01306ec7199945
gd89-04-30d1t05.flac:cb99f837a3274941d0d52c294fba0b03
gd89-04-30d1t06.flac:5ef446d7cc9ec6c1313fb8cc2a3b99a5
gd89-04-30d1t07.flac:6dc116f939bac6fc3d1ff177b17222a0
gd89-04-30d1t08.flac:966d997a62c964053c7bc732d51ddfc4
gd89-04-30d1t09.flac:ad71f8061d70e0c384f227434d58caa1
gd89-04-30d2t01.flac:bc3d78102243496ef4227bd4e0720f17
gd89-04-30d2t02.flac:0babe827ae6fa26c58ba5cd94d5af0f9
gd89-04-30d2t03.flac:f9c0034faaf87bb3fb6784296e43e898
gd89-04-30d2t04.flac:ce1948a305df999549c68f674ac12d05
gd89-04-30d2t05.flac:b1799e2ea490e55669b72d4fb22886a2
gd89-04-30d2t06.flac:a6faaa5c78718f8b4c362f911d144742
gd89-04-30d3t01.flac:0383013b0e9b66a655ddfffbaf00472a
gd89-04-30d3t02.flac:b3dec96636428951f1bfca2458ab3484
gd89-04-30d3t03.flac:c6114983551e4d7eea4e0c7440403dfa
gd89-04-30d3t04.flac:3abb4a2b7dd634125010b2349b39808e
gd89-04-30d3t05.flac:1f6c6252b6dda7cb517a3b1265310300
gd89-04-30d3t06.flac:bb89cdf9698bc9c2ae8000f6fe4b12cb
gd89-04-30d3t07.flac:639f3c9a4ff33af8a41bc12fa27b4c95
flac-md5
af7f4c7a671a4e2f7037f21a2b33202c *gd89-04-30d1t01.flac
5adcd0eba5f7455ad5e7dfc8bf671115 *gd89-04-30d1t02.flac
68943b32d6e6479b8a12e2752323543a *gd89-04-30d1t03.flac
3f35f879bf20eaf9855744f633460d08 *gd89-04-30d1t04.flac
c897fc10ceff57df07649e1a85cf78c1 *gd89-04-30d1t05.flac
121af5c12e9897666bd825d126a972ef *gd89-04-30d1t06.flac
c944414152e58e44e2d7c303a2315411 *gd89-04-30d1t07.flac
8d920a065ecde1781747e09319846590 *gd89-04-30d1t08.flac
13c07c0364aafcdbb0500f3f684b9d35 *gd89-04-30d1t09.flac
186a489293171e0dd25a247c7408beb9 *gd89-04-30d2t01.flac
e695d349e475d2ab1819e128577981ce *gd89-04-30d2t02.flac
95b299a62b39ef15b9832f46308e565b *gd89-04-30d2t03.flac
1f5b5d21a38a23bc169561d5800ae98b *gd89-04-30d2t04.flac
5ea8cbdf8b9ccd34af1286b464933463 *gd89-04-30d2t05.flac
d8ae3d44cf826b95e4797ea3c4ad337b *gd89-04-30d2t06.flac
3b9e4d95e5ec2ed1cfef87dff463e1df *gd89-04-30d3t01.flac
0ef12140bf6b0430c47d7f0d29893334 *gd89-04-30d3t02.flac
634423dddb6bd5b364cdb25abd4e671a *gd89-04-30d3t03.flac
30b8a56f707f2f0e3f30be7c78bd788e *gd89-04-30d3t04.flac
7726192ae538256dc8a9421b00f45a71 *gd89-04-30d3t05.flac
4b3248a1a8d7d5c4389bda7453c79f05 *gd89-04-30d3t06.flac
e1d306898342e3649ecd3a635ad814f2 *gd89-04-30d3t07.flac

Comments
Add Comment
Other Sources (comments)
Master Soundboard Cassette... (0) flac16; FOB AUD:... (0) flac16; Set 1 Source... (0)
Date User Comment