Browse Collections Artists Sources   Search Dates

Add Show    List Management    Help


Phish 07/27/92
Saratoga Performing Arts Center, Saratoga Springs, NY
Comments Add Comment    Source Collectors    Add to Collection    Add to Want List    History
Source # 88175 Other Sources
Entered by Ben Mohr
Checksums all_ffp , all_wav_md5
Disc Counts 1 / 1
Media Size
Date Circulated
Date Added
11/03/2007
11/03/2007
Source Summary AUD > Cass/3; Onkyo TA-RW344> Grace Design Lunatec V3 > Tascam HD-P2 @24bit,96kHz > WaveLab 5.01b (DSP) > CDWav > FLAC; Transferred by Jason Sobel 
Source Information - Download Text | Download Zip
Phish
July 27, 1992
Saratoga Performing Arts Center
Saratoga Springs, NY

source:
unknown Aud/3 cassette

transfer:
Aud/3 Maxell XL II cassette > Onkyo TA-RW344 deck > Grace Design Lunatec V3 (S/PDIF out) > Tascam HD-P2 (@ 24 bit, 96 kHz) > CF Card > usb 2.0 > pc > WaveLab 5.01b (DSP) > CD Wave v1.96.1 > FLAC v1.2.1 (Level 8)

FLAC tags added with metaflac v1.2.1

transferred by Jason Sobel ([email protected])
big thanks to John Stewart for tracking down this tape and sending it to me to transfer
seeded November 3, 2007

recording notes:
The 3rd gen. analog tape that was used in this transfer has a fair amount of distortion.
It's certainly not the best recording, but at this point, its all we have from this show.

Digital Signal Processing (DSP) included:
pitch correction (+1 semitone) to compensate for noticeably slow/flat analog generations/transfers
+12dB for first minute or so of "Golgi", this short portion was recorded at a lower level
normalize each channel seperately to 0dB to balance levels in each channel
(on the cassette, the left channel was approximately 3dB lower than the right)
fades
Waves X-Noise plug-in for hiss/noise reduction
ReSampler 192kHz plug-in to resample to 44.1 kHz
Apogee uv22hr dither to 16 bit

these 16 bit, 44.1 kHz files are ready to be burned to audio CD
the raw, unedited 24 bit, 96 kHz files have been archived and are available upon request

TOTAL TIME - [64:57]

Phish set - [38:06]
01 - [03:16] - Golgi Apparatus
02 - [03:04] - All Things Reconsidered
03 - [12:14] - David Bowie
04 - [03:51] - Horn
05 - [05:25] - Suzy Greenberg
06 - [05:25] - Llama
07 - [01:56] - Sweet Adeline
08 - [02:55] - Rocky Top

filler - [26:51]
Santana 7/27/92 with Trey
01 - [13:31] - Jam >
02 - [13:20] - Super Boogie / Hong Kong Blues

show notes:
The Phish set was an opener for Santana.
The filler (the portion of Santana's set with Trey) came from the same cassette, and had the same DSP applied.

---------------------------------------------------------------------------------------------------

SHNtool output:

    length     expanded size   cdr  WAVE problems filename
     3:16.04       34583852    ---   --   ---xx   ph1992-07-27t01.flac
     3:03.44       32384732    ---   --   ---xx   ph1992-07-27t02.flac
    12:13.67      129458828    ---   --   ---xx   ph1992-07-27t03.flac
     3:51.03       40755500    ---   --   ---xx   ph1992-07-27t04.flac
     5:24.62       57299468    ---   --   ---xx   ph1992-07-27t05.flac
     5:24.69       57315932    ---   --   ---xx   ph1992-07-27t06.flac
     1:56.32       20537708    ---   --   ---xx   ph1992-07-27t07.flac
     2:55.19       30914732    ---   --   ---xx   ph1992-07-27t08.flac
    13:30.59      143022812    ---   --   ---xx   santana1992-07-27t01.flac
    13:20.03      141127100    ---   --   ---xx   santana1992-07-27t02.flac
    64:56.62      687400664 B                     (totals for 10 files, 0.5750 overall compression ratio)

Show Checksums
all_ffp
ph1992-07-27t01.flac:cfa03df74ad5f9664f05fc23daeb9d7b
ph1992-07-27t02.flac:82d30bfee4d7f1648613edf4a039145c
ph1992-07-27t03.flac:48484711801d2f2b35399876cfdc62cf
ph1992-07-27t04.flac:dbfa620bd5fb379d778a8d0fb43ac38d
ph1992-07-27t05.flac:b0ae6a6f345cbd1c00b0c66a44c3ad3e
ph1992-07-27t06.flac:361ab7625729a73a6feaf3d1a37e505c
ph1992-07-27t07.flac:563242db6d611dfdceeb9e59737271d0
ph1992-07-27t08.flac:9d9e47f0e2fa531a1e7c46ffeda5a740
santana1992-07-27t01.flac:0d978a2a117f192e171641657e39e274
santana1992-07-27t02.flac:14a97b6cf1608e2ebc5df82514d12968
all_wav_md5
f19d9061770a77efb0c2add5b86a98c1 *ph1992-07-27t01.wav
2b6a701c501ba7509241fd89273b3279 *ph1992-07-27t02.wav
588190da8cc4320cba5a8be7d18d2302 *ph1992-07-27t03.wav
40a6c013f8ce5391cfb515f557e26b5f *ph1992-07-27t04.wav
e2cfeadf8b7360e4b4d95056f1951116 *ph1992-07-27t05.wav
2c4bbace86db25fa1b59480ed19486d5 *ph1992-07-27t06.wav
47d2d911e975790423d9dff9e6379093 *ph1992-07-27t07.wav
f658412fa0c409429651f18f10a57ec8 *ph1992-07-27t08.wav
3ffb99a9898b3f6a0c04edb6c23cc400 *santana1992-07-27t01.wav
2ef4538b04063964092554fd0c258d75 *santana1992-07-27t02.wav

Comments
Add Comment
Other Sources (comments)
flac16; Nakamichi... (2)
Date User Comment
06/24/2012 TWATTS "2 Nakamichi 700s and Teac DA-P20 DAT"

Terry