Browse Collections Artists Sources   Search Dates

Add Show    List Management    Help


Phish 08/16/93
American Theater, St. Louis, MO
Comments Add Comment    Source Collectors    Add to Collection    Add to Want List    History
Source # 88273 Other Sources
Entered by Jason Sobel
Checksums all_ffp
Disc Counts 2 / 3
Media Size
Date Circulated
Date Added
11/06/2007
11/07/2007
Source Summary Realistic PZM microphones > Marantz PMD-430; cassette masters > Sony TC-D6C deck > Audiomedia III > Protools 4.1.1 > .SHN > AIFF> xACT1.3 for SBE FIX > xACT1.3 > .FLAC 
Source Information - Download Text | Download Zip
Band : Phish
Date : August 16, 1993
City : St. Louis MO, United States Of America
Venue : American Theatre
-=-=-=-=-=-=-=-=-=-=-=-=-=-=-=-=-=-=-=-=-=-=-=-=-

Set I
Disc 1 (71:58.58)
ph1993-08-16d1t01 4:22 Axilla
ph1993-08-16d1t02 12:37 Possum
ph1993-08-16d1t03 4:04 Horn Song
ph1993-08-16d1t04 17:23 Reba
ph1993-08-16d1t05 4:46 Sparkle
ph1993-08-16d1t06 11:18 Foam
ph1993-08-16d1t07 5:41 I Didn't Know
ph1993-08-16d1t08 11:44 Split Open and Melt


Disc 2 (62:33.23)
ph1993-08-16d2t01 10:13 Coil

Set II (d2 ctd.)
ph1993-08-16d2t02 12:53 Mike's Song >
ph1993-08-16d2t03 3:13 Faht >
ph1993-08-16d2t04 15:19 Weekapaug Groove
ph1993-08-16d2t05 5:39 Mound
ph1993-08-16d2t06 8:39 Ice
ph1993-08-16d2t07 6:34 My Friend, My Friend


Disc 3 (22:43.66)
ph1993-08-16d3t01 2:21 Poor Heart
ph1993-08-16d3t02 2:42 Big Ball Jam
ph1993-08-16d3t03 4:36 Take The A-Train
ph1993-08-16d3t04 6:54 Good Times Bad Times
ph1993-08-16d3t05 3:03 Amazing Grace
ph1993-08-16d3t06 3:06 Rocky Top

set 1- 1:22:08
set 2 + encores- 1:14:59
total time 2:37:07

-=-=-=-=-=-=-=-=-=-=-=-=-=-=-=-=-=-=-=-=-=-=-=-=-

Recorded (August 1992):
Realistic PZM microphones (12v each) > Marantz PMD-430 (no NR)> type II & type IV master cassettes

-=-=-=-=-=-=-=-=-=-=-=-=-=-=-=-=-=-=-=-=-=-=-=-=-

Transcribed (September 2004):
cassette masters> Sony TC-D6C Cassette deck > Audiomedia III PCI card @44.1 KHz> Powermac G3/266 > Protools 4.1.1 for tracking including patching tape flips > .WAV files > Shorten 1.1a3 > .SHN files

.SHN files moved to Powermac G4 for SBE elimination by set

.SHN > xACT1.3 > AIFF> xACT1.3 for SBEFIX > xACT1.3 > .FLAC files
-=-=-=-=-=-=-=-=-=-=-=-=-=-=-=-=-=-=-=-=-=-=-=-=-
Setlist:
Axilla, Possum, Horn, Reba (master cassette flip) Sparkle, Foam, Didn't Know, Split open, Coil. . .(master cassette change). . .Coil solo.
set II:
Mike's> Faht> Weekapaug, Mound, Ice, Friend. . .(master cassette flip)|. . .Poor, Balls, A-Train, Good X Bad X
Encores:

Grace, Rockytop

notes:
I Didn't Know features Henrietta on Madonna Washboard- the man who is nothing but a butt with protruding arms and legs
Faht is once again introduced by Jon as "WINDHAM HELL"
Amazing Grace is performed acapalla, with no microphones
November 2007 - files renamed for burning on 3 CDs, Flac fingerprint files generated, this textfile updated

shntool results:
length expanded size cdr WAVE problems filename
4:22.21 46266236 --- -- ---xx ph1993-08-16d1t01.flac
12:37.25 133593644 --- -- ---xx ph1993-08-16d1t02.flac
4:04.29 43109852 --- -- ---xx ph1993-08-16d1t03.flac
17:23.43 184086380 --- -- ---xx ph1993-08-16d1t04.flac
4:46.50 50568044 --- -- ---xx ph1993-08-16d1t05.flac
11:18.02 119603948 --- -- ---xx ph1993-08-16d1t06.flac
5:41.44 60255932 --- -- ---xx ph1993-08-16d1t07.flac
11:44.69 124347932 --- -- ---xx ph1993-08-16d1t08.flac
10:13.48 108246140 --- -- ---xx ph1993-08-16d2t01.flac
12:53.11 136383116 --- -- ---xx ph1993-08-16d2t02.flac
3:13.56 34176956 --- -- ---xx ph1993-08-16d2t03.flac
15:19.32 162186908 --- -- ---xx ph1993-08-16d2t04.flac
5:39.26 59860796 --- -- ---xx ph1993-08-16d2t05.flac
8:39.32 91626908 --- -- ---xx ph1993-08-16d2t06.flac
6:34.43 69602780 --- -- ---xx ph1993-08-16d2t07.flac
2:21.22 24924188 --- -- ---xx ph1993-08-16d3t01.flac
2:42.40 28670924 --- -- ---xx ph1993-08-16d3t02.flac
4:36.04 48695852 --- -- ---xx ph1993-08-16d3t03.flac
6:54.13 73060220 --- -- ---xx ph1993-08-16d3t04.flac
3:03.36 32365916 --- -- ---xx ph1993-08-16d3t05.flac
3:06.26 32871596 --- -- ---xx ph1993-08-16d3t06.flac
157:15.72 1664504268 B (totals for 21 files, 0.4517 overall compression ratio)
Show Checksums
all_ffp
ph1993-08-16d1t01.flac:859b23feb34f22a2198a849fd3ad9b7b
ph1993-08-16d1t02.flac:cc004cf94bd94d8b2dd16a90dfbd0420
ph1993-08-16d1t03.flac:44b1ae4273d2264bea88a3658fe4b55a
ph1993-08-16d1t04.flac:f4eec3ddafa8a82ed9b4b5ee393e90f0
ph1993-08-16d1t05.flac:255460daf317b3b02a7b878536eb9b6b
ph1993-08-16d1t06.flac:6533f8601115bf9fe8b445b636658bc2
ph1993-08-16d1t07.flac:9175b5b6c62a1986881e99b34cbb7c3c
ph1993-08-16d1t08.flac:30c02ede22db50a921074f5b0c225190
ph1993-08-16d2t01.flac:b58316c646801cae01f718fa4482d3d7
ph1993-08-16d2t02.flac:1cb93bd20741f410cc42b5b389f25cab
ph1993-08-16d2t03.flac:07ff866796026b758eb54a583480e6d9
ph1993-08-16d2t04.flac:c6497907f4f33a879f0eb441614b9970
ph1993-08-16d2t05.flac:efa7141a3ae3b3898a84066441c4bfee
ph1993-08-16d2t06.flac:953e4c96e387d71709651148a5562c01
ph1993-08-16d2t07.flac:3e14d0e413d7f8d69115c85e26a0b98b
ph1993-08-16d3t01.flac:c57bc28525f5f0f9f6fd0638397d1d9f
ph1993-08-16d3t02.flac:98de164fd36ba74d3921ee89de4db632
ph1993-08-16d3t03.flac:26de5f8f84a27a743bfe5af97fced75e
ph1993-08-16d3t04.flac:212a276e15fc1f42595086ccb852c655
ph1993-08-16d3t05.flac:d100700a8d6ac2f07cbebd930e330ab3
ph1993-08-16d3t06.flac:c8be746b81eee9b387deb8b6236f7dc5

Comments
Add Comment
Other Sources (comments)
Nak CM300 (omni) > Sony D7... (1)
Date User Comment