Browse Collections Artists Sources   Search Dates

Add Show    List Management    Help


Grateful Dead 10/13/94
Madison Square Garden, New York, NY
Comments Add Comment    Source Collectors    Add to Collection    Add to Want List    History
Source # 88356 Other Sources
Entered by Matt Vernon
Checksums ffp , flac-md5
Disc Counts 2 / 0
Media Size
Date Circulated
Date Added
11/10/2007
11/10/2007
Source Summary flac16/48; AUD: Schoeps CMC3/MK4 (ORTF) > Oade mic power supply > Casio DA-7 (lead deck) > Coax SPDIF > Casio DA-7 (first deck out) > TDK DC4. Mics on 7-foot stand, directly behind lighting board in the center. Transfer: MAD > Sony TCD-D10P > SPDIF > Audiophile 2496 > Soundforge (at 48kHz) > CD-Wave > TLH > FLAC. Taped and transferred by Andrew F. 
  Archive
Source Information - Download Text | Download Zip
GRATEFUL DEAD
Madison Square Garden
New York NY
10-13-1994

48kHZ (16-bit) file-set.

s1t01 crowd & tuning
s1t02 Touch of Grey
s1t03 Wang Dang Doodle
s1t04 Loser
s1t05 Mama Tried >
s1t06 Mexicali Blues
s1t07 Dupree's Diamond Blues
s1t08 When I Paint My Masterpiece
s1t09 Loose Lucy
s1t10 Let it Grow

s2t01 crowd & tuning
s2t02 Foolish Heart >
s2t03 Playin' in the Band >
s2t04 Uncle John's Band > Jam >
s2t05 Drums >
s2t06 Percussion Space >
s2t07 Space >
s2t08 The Other One >
s2t09 Wharf Rat >
s2t10 Johnny B Goode
s2t11 crowd & tuning
s2t12 Encore: It's All Over Now Baby Blue

AUD: Schoeps CMC3/MK4 (ORTF) > Oade mic power supply > Casio DA-7 (lead deck) > Coax SPDIF > Casio DA-7 (first deck out) > TDK DC4. Mics on 7-foot stand, directly behind lighting board in the center.

Transfer: MAD > Sony TCD-D10P > SPDIF > Audiophile 2496 > Soundforge (at 48kHz) > CD-Wave > TLH > FLAC. Taped and transferred by Andrew F.

Notes:
- Drums/Space has fuzzy-sounding low-end overload in a few spots.
- Soundforge used to make fades.
- TLH used for FLAC compression and checksums.

shntool

    length     expanded size   cdr  WAVE problems filename
     3:41.491      42526280    cxx   --   ---xx   gd1994-10-13s1t01.flac
     7:02.800      81177644    cxx   --   ---xx   gd1994-10-13s1t02.flac
     6:29.480      74780204    cxx   --   ---xx   gd1994-10-13s1t03.flac
     8:28.307      97594924    cxx   --   ---xx   gd1994-10-13s1t04.flac
     2:36.747      30095404    cxx   --   ---xx   gd1994-10-13s1t05.flac
     6:43.467      77465644    cxx   --   ---xx   gd1994-10-13s1t06.flac
     6:13.080      71631404    cxx   --   ---xx   gd1994-10-13s1t07.flac
     5:32.240      63790124    cxx   --   ---xx   gd1994-10-13s1t08.flac
     9:35.733     110540844    cxx   --   ---xx   gd1994-10-13s1t09.flac
    13:01.013     149954460    cxx   --   ---xx   gd1994-10-13s1t10.flac
     3:47.258      43633512    cxx   --   ---xx   gd1994-10-13s2t01.flac
    10:58.120     126359084    cxx   --   ---xx   gd1994-10-13s2t02.flac
    10:54.480     125660204    cxx   --   ---xx   gd1994-10-13s2t03.flac
    18:21.440     211476524    cxx   --   ---xx   gd1994-10-13s2t04.flac
     9:48.947     113077804    cxx   --   ---xx   gd1994-10-13s2t05.flac
     4:54.480      56540204    cxx   --   ---xx   gd1994-10-13s2t06.flac
    10:59.867     126694444    cxx   --   ---xx   gd1994-10-13s2t07.flac
    10:19.040     118855724    cxx   --   ---xx   gd1994-10-13s2t08.flac
    11:22.613     131061804    cxx   --   ---xx   gd1994-10-13s2t09.flac
     4:57.253      57072684    cxx   --   ---xx   gd1994-10-13s2t10.flac
     1:50.493      21214764    cxx   --   ---xx   gd1994-10-13s2t11.flac
     7:40.984      88509016    cxx   --   ---xx   gd1994-10-13s2t12.flac
   175:19.332    2019712700 B                     (totals for 22 files, 0.5555 overall compression ratio)

There were no sector boundary errors.
Show Checksums
ffp
gd1994-10-13s1t01.flac:723558b0c1f8bad201d10a61dc79e2e2
gd1994-10-13s1t02.flac:c6633c102e659ebd94c83e42dcc4030b
gd1994-10-13s1t03.flac:2f9184991b6c0e363e66cc532f771951
gd1994-10-13s1t04.flac:c9035fca09c8f3952f561f8f3450900c
gd1994-10-13s1t05.flac:7002b6ffe0c944c32dcd4fcb22a2ef5b
gd1994-10-13s1t06.flac:7ea188280a7fede773a366fdc0366981
gd1994-10-13s1t07.flac:e1e4337efb3892e542bd3c7e01e4d6b7
gd1994-10-13s1t08.flac:8da8dcab4b02c932b542771fe982398f
gd1994-10-13s1t09.flac:9c48c7495bada75559b375d73b10dd05
gd1994-10-13s1t10.flac:6d3fc476cbf4aa2a1cf68cd271e87c16
gd1994-10-13s2t01.flac:d609a5dd1bc5e31d29173cb827cea18d
gd1994-10-13s2t02.flac:76c04df3574c0b569dace827ac00bc02
gd1994-10-13s2t03.flac:343984acea922a5d70f397295ec4d2d7
gd1994-10-13s2t04.flac:e740afd61764b691c77c99134b73ccf4
gd1994-10-13s2t05.flac:c2af17cfdd61ae457f8df1b7b4f1ee36
gd1994-10-13s2t06.flac:a40cb3605948f9fcb57d8fea9f1295df
gd1994-10-13s2t07.flac:851564cf1d0ab6870f7160aed0e22d30
gd1994-10-13s2t08.flac:acc2f1941501129c29fdcf94f671ec7d
gd1994-10-13s2t09.flac:3a3639d37b184419fc15736abaabcf75
gd1994-10-13s2t10.flac:6eff19946bc5cb761d48a7be98c28271
gd1994-10-13s2t11.flac:fb6d5d7e20723ec02fdc806aa831f7c9
gd1994-10-13s2t12.flac:26b90477a6c8f1d7a3a75ebf0a9dcc7f
flac-md5
3646d010ad6c3d1337673d7d8504894d *gd1994-10-13s1t01.flac
35cf41feb6a66ff0e833d83ced0a6aad *gd1994-10-13s1t02.flac
b102dd094725da5153ee77803e85202d *gd1994-10-13s1t03.flac
d3999f432aee2f9f887119b444e8d26e *gd1994-10-13s1t04.flac
09387bbe9971708ee8b33ad943cee65e *gd1994-10-13s1t05.flac
0d41ebbe92b122a3152e761c07f05702 *gd1994-10-13s1t06.flac
df66429d101a1239a7db1e11eb44b968 *gd1994-10-13s1t07.flac
a1a3c2a1ed4d53cad52b1c42d6cccd8f *gd1994-10-13s1t08.flac
8d127763161633b1c070db0e068336da *gd1994-10-13s1t09.flac
b2c69f02a5a6b132bafe1c15063ba760 *gd1994-10-13s1t10.flac
ba49d45e97ae86127c55e0d057bdc683 *gd1994-10-13s2t01.flac
cb5f983fe3db290b137d03d60cdf6ec0 *gd1994-10-13s2t02.flac
391b156fd9ce98eb3cb9201bc4f07200 *gd1994-10-13s2t03.flac
f61320075147b6b32160b88e74d93d03 *gd1994-10-13s2t04.flac
ec228b11fd2aec8d761de78b97438008 *gd1994-10-13s2t05.flac
27732493048dfb04f764221fae7c15a9 *gd1994-10-13s2t06.flac
9c7001822208319507a5f3abbe2d21c8 *gd1994-10-13s2t07.flac
93bc5cdf123cdc89d2b3515fca2760d8 *gd1994-10-13s2t08.flac
2b14d90877343ca1cca9b04db8062e67 *gd1994-10-13s2t09.flac
4efa524dd651f3ea2ed446557a348159 *gd1994-10-13s2t10.flac
eec46871e10db868de2f2360696837f9 *gd1994-10-13s2t11.flac
ab24f4676af891225050c01f1693647f *gd1994-10-13s2t12.flac

Comments
Add Comment
Other Sources (comments)
SBD> DAT> C> DAT> CDR> EAC>... (2) flac16; SBD -> Dat... (0) Seamless fix of (1) flac16; AUD: Schoeps... (0) flac16; Source: aud... (0) flac16/48kHz; Master... (0)
Date User Comment