Browse Collections Artists Sources   Search Dates

Add Show    List Management    Help


Grateful Dead 10/13/94
Madison Square Garden, New York, NY
Comments Add Comment    Source Collectors    Add to Collection    Add to Want List    History
Source # 88357 Other Sources
Entered by Matt Vernon
Checksums ffp , flac-md5
Disc Counts 2 / 3
Media Size
Date Circulated
Date Added
11/10/2007
11/10/2007
Source Summary flac16; AUD: Schoeps CMC3/MK4 (ORTF) > Oade mic power supply > Casio DA-7 (lead deck) > Coax SPDIF > Casio DA-7 (first deck out) > TDK DC4. Mics on 7-foot stand, directly behind lighting board in the center. Transfer: MAD > Sony TCD-D10P > SPDIF > Audiophile 2496 > Soundforge (at 48kHz) > CD-Wave > R8Brain v1.9 (downsample to 44.1kHz) > TLH > FLAC. Taped & transferred by Andrew F. 
  Archive
Source Information - Download Text | Download Zip
GRATEFUL DEAD
Madison Square Garden
New York NY
10-13-1994

Disc One (69:24)

01 crowd & tuning
02 Touch of Grey
03 Wang Dang Doodle
04 Loser
05 Mama Tried >
06 Mexicali Blues
07 Dupree's Diamond Blues
08 When I Paint My Masterpiece
09 Loose Lucy
10 Let it Grow
-- set break --

Disc Two (53:50)

01 crowd & tuning
02 Foolish Heart >
03 Playin' in the Band >
04 Uncle John's Band > Jam >
05 Drums >

Disc Three (52:04)

01 Percussion Space >
02 Space >
03 The Other One >
04 Wharf Rat >
05 Johnny B Goode
-- encore --
06 crowd & tuning
07 It's All Over Now Baby Blue

AUD: Schoeps CMC3/MK4 (ORTF) > Oade mic power supply > Casio DA-7 (lead deck) > Coax SPDIF > Casio DA-7 (first deck out) > TDK DC4. Mics on 7-foot stand, directly behind lighting board in the center.

Transfer: MAD > Sony TCD-D10P > SPDIF > Audiophile 2496 > Soundforge (at 48kHz) > CD-Wave > R8Brain v1.9 (downsample to 44.1kHz) > TLH > FLAC. Taped & transferred by Andrew F.

Notes:
- Drums/Space has fuzzy-sounding low-end overload in a few spots.
- Break between D2 & D3 is seamless.
- Soundforge used to make fades.
- TLH used for SBE-OK, FLAC compression, and checksums.


shntool

    length     expanded size   cdr  WAVE problems filename
     3:41.36       39069116    ---   --   ---xx   gd1994-10-13d1t01.flac
     7:02.60       74581964    ---   --   ---xx   gd1994-10-13d1t02.flac
     6:29.36       68704316    ---   --   ---xx   gd1994-10-13d1t03.flac
     8:28.23       89665340    ---   --   ---xx   gd1994-10-13d1t04.flac
     2:36.56       27650156    ---   --   ---xx   gd1994-10-13d1t05.flac
     6:43.35       71171564    ---   --   ---xx   gd1994-10-13d1t06.flac
     6:13.06       65811356    ---   --   ---xx   gd1994-10-13d1t07.flac
     5:32.18       58607180    ---   --   ---xx   gd1994-10-13d1t08.flac
     9:35.55      101559404    ---   --   ---xx   gd1994-10-13d1t09.flac
    13:01.01      137770796    ---   --   ---xx   gd1994-10-13d1t10.flac
     3:47.20       40089884    ---   --   ---xx   gd1994-10-13d2t01.flac
    10:58.09      116092412    ---   --   ---xx   gd1994-10-13d2t02.flac
    10:54.36      115450316    ---   --   ---xx   gd1994-10-13d2t03.flac
    18:21.33      194294060    ---   --   ---xx   gd1994-10-13d2t04.flac
     9:48.71      103890236    ---   --   ---xx   gd1994-10-13d2t05.flac
     4:54.36       51946316    ---   --   ---xx   gd1994-10-13d3t01.flac
    10:59.65      116400524    ---   --   ---xx   gd1994-10-13d3t02.flac
    10:19.03      109198700    ---   --   ---xx   gd1994-10-13d3t03.flac
    11:22.46      120413036    ---   --   ---xx   gd1994-10-13d3t04.flac
     4:57.19       52435532    ---   --   ---xx   gd1994-10-13d3t05.flac
     1:50.37       19491068    ---   --   ---xx   gd1994-10-13d3t06.flac
     7:40.74       81318092    ---   --   ---xx   gd1994-10-13d3t07.flac
   175:19.25     1855611368 B                     (totals for 22 files, 0.5723 overall compression ratio)

There were no sector boundary errors.
Show Checksums
ffp
gd1994-10-13d1t01.flac:5fbdadc5e61952fdec908b1e3bff2d8d
gd1994-10-13d1t02.flac:8e213caa56f567c8560acdf74f18a84f
gd1994-10-13d1t03.flac:3a81486f19a4fd71c30a96082ab66e94
gd1994-10-13d1t04.flac:fdb60ec33bf3693914887464d63f0d50
gd1994-10-13d1t05.flac:aea8ac0cfd4a34ddedcb41e41137903f
gd1994-10-13d1t06.flac:e8aa10af20b4c18e4f2b85eafc1fffd3
gd1994-10-13d1t07.flac:5622c239b7cca68a4141f1280770363f
gd1994-10-13d1t08.flac:639ccc38dec3306176d633488b37a20d
gd1994-10-13d1t09.flac:2c8787956450c884a120ba91544c70f0
gd1994-10-13d1t10.flac:8aea93a8c7e65c692480064a02ae1d50
gd1994-10-13d2t01.flac:f9fea578778172af526d385c0c851196
gd1994-10-13d2t02.flac:9dfa5e31d60d8bc49aa221058d93e3fa
gd1994-10-13d2t03.flac:86a7c94a770d03672b1812840c4a2976
gd1994-10-13d2t04.flac:ff4d0507544c1b0688c17e191e0f10be
gd1994-10-13d2t05.flac:a5f6d7a66050508aae18afa436bbc8ff
gd1994-10-13d3t01.flac:b506ffc8cee9532ff9e13cb7a40e64ae
gd1994-10-13d3t02.flac:66408372dbe82de7a70c82b025e4ed4e
gd1994-10-13d3t03.flac:9d2452a25a61a6cafe8f622a1d02c3bb
gd1994-10-13d3t04.flac:4024a9f0cf60792e2ca723dbe83ee207
gd1994-10-13d3t05.flac:05eabe196f21f8a9be8827b97ed1d4ad
gd1994-10-13d3t06.flac:c557ed25c179242f033adeddb59d7486
gd1994-10-13d3t07.flac:47582793643b0868bd14ef0a1c1ebe14
flac-md5
a7d6b5a762796f7dbd27592f8b9730cb *gd1994-10-13d1t01.flac
574eead87dd2c0e71b2c93dc0bce234f *gd1994-10-13d1t02.flac
0dff89d2ee5c5149767c5982f2128f7a *gd1994-10-13d1t03.flac
9d6db9108139d8e718ba6edf69afd246 *gd1994-10-13d1t04.flac
3aa81e5a39295a362b31026fe4147498 *gd1994-10-13d1t05.flac
8f1b40c05c4dff1ffcc8f80d65d7dd21 *gd1994-10-13d1t06.flac
776b46820b495be68a94a19d596db95e *gd1994-10-13d1t07.flac
870de7fc86eea06d701a716440e58972 *gd1994-10-13d1t08.flac
2a4cd82c5915063cd9e4ec0def5c122a *gd1994-10-13d1t09.flac
fd71c433765f469feee9f5602f010f69 *gd1994-10-13d1t10.flac
087a56292b9c15d294c4370d869e759e *gd1994-10-13d2t01.flac
ea7a8295ea035e66ee0cc11e13325de3 *gd1994-10-13d2t02.flac
8796362762a618d3c6ad2a1e3050513f *gd1994-10-13d2t03.flac
8b0ec294282fc6ade55074f07a86ae44 *gd1994-10-13d2t04.flac
6c576aa3a37bb0b98f60d9be9fa05de6 *gd1994-10-13d2t05.flac
6953711850152b8bbc67538e4713a05c *gd1994-10-13d3t01.flac
473147cdfb4f8b6dbe534a23820c528e *gd1994-10-13d3t02.flac
f032832a0c79435264906b06144f530e *gd1994-10-13d3t03.flac
7e75ec2f69815a2e817e2974dfc38d4d *gd1994-10-13d3t04.flac
e5d6d8fd2dedab9a5661d203d411cf1e *gd1994-10-13d3t05.flac
6d69fdeea9516654f0b2a06b6a14c71c *gd1994-10-13d3t06.flac
3a92f6f5f011337398c7a29e7c76dfa7 *gd1994-10-13d3t07.flac

Comments
Add Comment
Other Sources (comments)
SBD> DAT> C> DAT> CDR> EAC>... (2) flac16; SBD -> Dat... (0) Seamless fix of (1) flac16/48; AUD:... (0) flac16; Source: aud... (0) flac16/48kHz; Master... (0)
Date User Comment