Browse Collections Artists Sources   Search Dates

Add Show    List Management    Help


Grateful Dead 12/08/89
Great Western LA Forum, Inglewood, CA
Comments Add Comment    Source Collectors    Add to Collection    Add to Want List    History
Source # 88398 Other Sources
Entered by Matt Vernon
Checksums ffp , flac-md5
Disc Counts 2 / 3
Media Size
Date Circulated
Date Added
11/09/2007
11/11/2007
Source Summary flac16; SBD -> Dat -> Cassette Master (TDK MA-XG90) Transfer Info: Cassette Master (Nakamichi DR-1) -> Apogee MiniMe (24bit/48k) -> Samplitude Professional v9.1.1 -> Cool Edit Pro v2.0 -> FLAC/16 All Transfers and Mastering By Charlie Miller 
  Archive
Source Information - Download Text | Download Zip
Grateful Dead - December 8, 1989
Great Western Forum - Inglewood, CA

Recording Info:
SBD -> Dat -> Cassette Master (TDK MA-XG90)

Transfer Info:
Cassette Master (Nakamichi DR-1) -> Apogee MiniMe (24bit/48k) ->
Samplitude Professional v9.1.1 -> Cool Edit Pro v2.0 -> FLAC/16
(3 Discs Audio / 2 Discs FLAC)

All Transfers and Mastering By Charlie Miller
November 9, 2007

Patch Info:
Unknown Mics -> Dat -> CD -> Samplitude supplies:
Drums (3:12 - 6:53)
Not Fade Away (5:27 - end of song)
U.S. Blues (complete song)

Notes:
-- Set 2 is seamless
-- Thanks to Paul Scotton and Joani Walker for the tapes
-- Thanks to Joe B. Jones for his help with the pitch correction

Set 1:
d1t01 - Let The Good Times Roll
d1t02 - Feel Like A Stranger
d1t03 - Stagger Lee
d1t04 - Beat It On Down The Line
d1t05 - Ramble On Rose
d1t06 - Cassidy
d1t07 - Blow Away

Set 2:
d2t01 - Help On The Way ->
d2t02 - Slipknot! ->
d2t03 - Franklin's Tower ->
d2t04 - Looks Like Rain ->
d2t05 - He's Gone ->
d2t06 - Drums ->
d3t01 - Space ->
d3t02 - I Will Take You Home ->
d3t03 - The Other One ->
d3t04 - Wharf Rat ->
d3t05 - Throwing Stones ->
d3t06 - Not Fade Away

Encore:
d3t07 - U.S. Blues


SHNTOOL OUTPUT:
    length     expanded size   cdr  WAVE problems filename
     4:50.12       51184268    ---   --   -----   gd89-12-08d1t01.wav
     9:47.23      103600940    ---   --   -----   gd89-12-08d1t02.wav
     8:08.29       86151452    ---   --   -----   gd89-12-08d1t03.wav
     3:13.66       34200476    ---   --   -----   gd89-12-08d1t04.wav
     8:41.22       91956188    ---   --   -----   gd89-12-08d1t05.wav
     6:28.58       68579660    ---   --   -----   gd89-12-08d1t06.wav
    11:51.10      125443964    ---   --   -----   gd89-12-08d1t07.wav
     4:35.42       48608828    ---   --   -----   gd89-12-08d2t01.wav
     6:37.72       70200188    ---   --   -----   gd89-12-08d2t02.wav
     8:45.21       92659436    ---   --   -----   gd89-12-08d2t03.wav
     9:44.18      103059980    ---   --   -----   gd89-12-08d2t04.wav
    12:56.51      137006396    ---   --   -----   gd89-12-08d2t05.wav
     7:09.64       75826172    ---   --   -----   gd89-12-08d2t06.wav
     7:35.29       80330252    ---   --   -----   gd89-12-08d3t01.wav
     4:02.30       42759404    ---   --   -----   gd89-12-08d3t02.wav
     9:29.30      100442204    ---   --   -----   gd89-12-08d3t03.wav
     9:55.53      105082700    ---   --   -----   gd89-12-08d3t04.wav
     9:14.09       97746812    ---   --   -----   gd89-12-08d3t05.wav
    11:27.26      121247996    ---   --   -----   gd89-12-08d3t06.wav
     5:47.30       61281404    ---   --   -----   gd89-12-08d3t07.wav
   160:22.20     1697368720 B                     (totals for 20 files)
Show Checksums
ffp
gd89-12-08d1t01.flac:ee55d1a1e82007860cfc8f79892928fd
gd89-12-08d1t02.flac:c16f8a3e4bdfce7e0daa8a0624fcd37e
gd89-12-08d1t03.flac:2054a831d638daba62df43c8d9d4d606
gd89-12-08d1t04.flac:f4983740c5d20cc02c341ea582c55174
gd89-12-08d1t05.flac:be932711882e51f506ca0f014dda547c
gd89-12-08d1t06.flac:c5ba2d0ebac1d2622db98cb5036bdc24
gd89-12-08d1t07.flac:3809b6ab0bbdc0bc289273256d538b5c
gd89-12-08d2t01.flac:f1e99ffe729a4666dd84f8419ce6e88c
gd89-12-08d2t02.flac:a220006b124759fd106055fe3495d32d
gd89-12-08d2t03.flac:420e00b3e93b70f453a45cbf3ff34f50
gd89-12-08d2t04.flac:8544a8ee80819fffa9132f17271983b8
gd89-12-08d2t05.flac:abecc8a4675384a8b421853ff9688405
gd89-12-08d2t06.flac:9c3c31f65432082ee4349386b9ded1e3
gd89-12-08d3t01.flac:94a81b464aa8936100f4d7a2f6591ade
gd89-12-08d3t02.flac:c27a1c5a1348f975c474dd008203d583
gd89-12-08d3t03.flac:59640c5462196392076fa27d35df02a3
gd89-12-08d3t04.flac:7f553c6d8f96470517be94c9ac062cdf
gd89-12-08d3t05.flac:92bc840f3e2bb9d14b2ddf7fdcb5193d
gd89-12-08d3t06.flac:a4dc965b1be2b70d461bf90960beb028
gd89-12-08d3t07.flac:d60886aff601d6470b66cba921838c21
flac-md5
a211c835b9ee5fcf49d9712c83a76252 *gd89-12-08d1t01.flac
0b166117bc0298514b60d3eed4cc4ff6 *gd89-12-08d1t02.flac
eaba2debee1c75c25a0818134e6fba27 *gd89-12-08d1t03.flac
ad0bab310a44a90f0e1d9b6006ca7a1b *gd89-12-08d1t04.flac
05c7e7ff39c1b73a160dd4dcb2831332 *gd89-12-08d1t05.flac
2c6b0d3bd989b8e4851594f5d29349f8 *gd89-12-08d1t06.flac
87d76592b87817ba0acf9ac948a5d369 *gd89-12-08d1t07.flac
faa2e2385c61197ec8693f213fe48088 *gd89-12-08d2t01.flac
0b4271bbed71036b3737a3b6e0570880 *gd89-12-08d2t02.flac
24d720fc1f5d4c4c73be2230d8b5a754 *gd89-12-08d2t03.flac
52b8a8906a86317a3a2425e32b561feb *gd89-12-08d2t04.flac
a5154df435abb8cdec70b413967968a7 *gd89-12-08d2t05.flac
90a5a640c24922020b6bccce7925fed1 *gd89-12-08d2t06.flac
620decbba3621bfc38cf00a7f01f4cf2 *gd89-12-08d3t01.flac
7dbd61baa83ef4c51345d8eb937ba4c3 *gd89-12-08d3t02.flac
4e0bbfc86d3206264defdf403536b63b *gd89-12-08d3t03.flac
d6fe9621384bd56b90b4a1416c50ba9c *gd89-12-08d3t04.flac
e25f5c1832b4fbe0030b5d48d8d80383 *gd89-12-08d3t05.flac
a985895b679d241360af901ddcaf6884 *gd89-12-08d3t06.flac
8897add5ba02d209c5349908c23582c0 *gd89-12-08d3t07.flac

Comments
Add Comment
Other Sources (comments)
AUD>DAT>CDR; Seeded to... (0) Source: Set 1... (0) flac24; Ambient... (0) flac16; Ambient... (0) flac16; Recording... (0) flac24; Recording... (0) flac16; Recording... (0)
Date User Comment