Browse Collections Artists Sources   Search Dates

Add Show    List Management    Help


Phish 09/29/99
Pyramid Arena, Memphis, TN
Comments Add Comment    Source Collectors    Add to Collection    Add to Want List    History
Source # 884 Other Sources
Entered by Matt Vernon
Checksums shn-md5 , st5 , ffp , filler-shn-md5 , filler-st5 , filler-ffp
Disc Counts 2 / 3
Media Size
Date Circulated
Date Added
10/20/99
06/29/2000
Source Summary Schoeps CMC641> Lunatec V2> Apogee A/D 1000> HHb PortaDAT 1000> DA-P1> Philips 870> DAE w/EAC>SHN; via Gwilada (S. Cardner); (only) flaw is a 23-sec dropout from the source DAT between the first set opener "Runaway Jim" and "Free", which cuts the end-vocals off of "Jim" and comes back in before the vocals begin in "Free"- quick fades put on each w/Cool Edit to make it more listenable, and silence cut down to ~5 sec; not etreed; md5, info file from Jud Howell added Feb 2018 (not submitted when shnid was first created) 
Source Information - Download Text | Download Zip
Phish at the Pyramid Arena, Memphis Tennessee 9-29-99
Source:  Schoeps CMC641>Lunatec V2>Apogee A/D 1000>HHb PortaDAT 1000>DA-P1>Phillips 870

Disc One
Set One
1.  Runaway Jim
2.  Free
3.  Driver
4.  Taste
5.  Dirt
6.  Nellie Cane
7.  Stash >
8.  Can't Turn You Loose / Jam
9.  Theme From the Bottom
10. Tweezer Reprise

Disc Two
Set Two
1.  Gotta Jiboo
2.  Also Sprach Zarathustra
3.  Down With Disease
4.  Billy Breathes
5.  Get Back on the Train
6.  Mike's Song >
7.  Catapult >
8.  Mike's song >
9.  Kung >
10. Mike's song
11. I  Didn't Know

Disc Three
Set Two
1.  Weekapaug Groove
Encore
2.  Cities
Filler:  Phish at the Crown, Cincinnati OH 11-14-98 (Set Two)
Source:  Schoeps CMC641 > Apogee A/D 1000>DA-P1> Phillips 870
3.  David Bowie
4.  Something
5.  Piper
6.  Golgi Apparatus
7.  Guyute

- - - - -

    length     expanded size    cdr  WAVE problems  fmt   ratio  filename
     7:57.47       84252752 B   -b-   --   ---xx    shn  0.5505  ph99-09-29d1t01.shn
    10:16.26      108723500 B   -b-   --   ---xx    shn  0.5417  ph99-09-29d1t02.shn
     3:24.40       36079736 B   ---   h-   ---xx    shn  0.4879  ph99-09-29d1t03.shn
    11:13.02      118721960 B   ---   h-   ---xx    shn  0.5465  ph99-09-29d1t04.shn
     5:13.50       55330856 B   ---   h-   ---xx    shn  0.4841  ph99-09-29d1t05.shn
     3:50.04       40581464 B   ---   h-   ---xx    shn  0.5315  ph99-09-29d1t06.shn
    10:21.56      109676168 B   ---   h-   ---xx    shn  0.5084  ph99-09-29d1t07.shn
     6:13.03       65804312 B   ---   h-   ---xx    shn  0.4893  ph99-09-29d1t08.shn
     9:25.52       99788360 B   ---   h-   ---xx    shn  0.5590  ph99-09-29d1t09.shn
     3:50.35       40654572 B   -b-   --   ---xx    shn  0.5893  ph99-09-29d1t10.shn
     7:35.57       80396108 B   ---   --   ---xx    shn  0.5449  ph99-09-29d2t01.shn
    21:39.70      229308296 B   ---   h-   ---xx    shn  0.5468  ph99-09-29d2t02.shn
    15:15.05      161417816 B   ---   h-   ---xx    shn  0.6001  ph99-09-29d2t03.shn
     7:15.51       76854008 B   ---   h-   ---xx    shn  0.4773  ph99-09-29d2t04.shn
     7:38.01       80793608 B   ---   h-   ---xx    shn  0.4852  ph99-09-29d2t05.shn
     6:09.42       65190440 B   ---   h-   ---xx    shn  0.5480  ph99-09-29d2t06.shn
     0:39.46        6987848 B   ---   h-   ---xx    shn  0.4717  ph99-09-29d2t07.shn
     0:42.35        7491176 B   ---   h-   ---xx    shn  0.5761  ph99-09-29d2t08.shn
     1:35.51       16878008 B   ---   h-   ---xx    shn  0.5106  ph99-09-29d2t09.shn
     0:42.52        7531160 B   ---   h-   ---xx    shn  0.5715  ph99-09-29d2t10.shn
     3:57.54       41932972 B   -b-   --   ---xx    shn  0.5152  ph99-09-29d2t11.shn
     8:07.42       86004548 B   -b-   --   ---xx    shn  0.5959  ph99-09-29d3t01.shn
     6:05.14       64418340 B   -b-   --   ---xx    shn  0.5727  ph99-09-29d3t02.shn
   159:11.09     1684818008 B                            0.5412  (23 files)



    length     expanded size    cdr  WAVE problems  fmt   ratio  filename
    16:40.66      176555276 B   ---   --   ---xx    shn  0.6470  ph98-11-14d3t03.shn
     3:30.37       37131080 B   ---   h-   ---xx    shn  0.6066  ph98-11-14d3t04.shn
     7:28.36       79111928 B   ---   h-   ---xx    shn  0.6875  ph98-11-14d3t05.shn
     4:41.68       49728392 B   ---   h-   ---xx    shn  0.6774  ph98-11-14d3t06.shn
    10:23.58      110032868 B   -b-   --   ---xx    shn  0.6440  ph98-11-14d3t07.shn
    42:45.40      452559544 B                            0.6534  (5 files)




Show Checksums
shn-md5
a4ad6c26f11d4ecb40cb4f6203c2f8c4 *ph99-09-29d1t01.shn
445e2901688d122db86616bb206c7da9 *ph99-09-29d1t02.shn
ceae6e3a284c710a58210321abd9e4c0 *ph99-09-29d1t03.shn
5f678f261bbd307d3d7f5024e217beb4 *ph99-09-29d1t04.shn
0205b1c87ea74aef4289d79ece818a30 *ph99-09-29d1t05.shn
584867e9dc1e9fa268f228980e91ad01 *ph99-09-29d1t06.shn
705baf507b4985ca2b781f6e8db2e454 *ph99-09-29d1t07.shn
7e2995bc98c39a5b93a1e078137de011 *ph99-09-29d1t08.shn
5e5f185f3afdbbbfe0875b4443c9f657 *ph99-09-29d1t09.shn
d1042bbd009ba3417fafd8ebcc278295 *ph99-09-29d1t10.shn
b6426bf63c2579f178cc4ca018990e77 *ph99-09-29d2t01.shn
398d2f18a9eecde2866a7daca33b2fc9 *ph99-09-29d2t02.shn
d4e7335803ee912bbebf27340ad10fcd *ph99-09-29d2t03.shn
e96d1062ec7b2af4d81555d6e38628a9 *ph99-09-29d2t04.shn
4a4f99ab3829495fa3b221a958d8555e *ph99-09-29d2t05.shn
587f351e934d9f072aa7d81d5d1d459f *ph99-09-29d2t06.shn
5afdfa577daa8bfab2e60ec76e92e1fe *ph99-09-29d2t07.shn
8061d09514b0c9a7d85361bdfd9809f7 *ph99-09-29d2t08.shn
54d4ccceed5f715ec1fd3108ed06b132 *ph99-09-29d2t09.shn
d6a3ab921e0b04b278e0b197dfb4b433 *ph99-09-29d2t10.shn
2fdc2d55d8ca579e382aaa28951a59ad *ph99-09-29d2t11.shn
21c891b107901cdc0d8d3cf287251182 *ph99-09-29d3t01.shn
26212204f7ed4dd2fefbb89e5172409c *ph99-09-29d3t02.shn
st5
a9bab359d5b30aa0776af90a7ae496c6 [shntool] ph99-09-29d1t01.shn
2e262caa42948a59efd4207d3fe18a6d [shntool] ph99-09-29d1t02.shn
33c3e01409019b1af56dd671409f7492 [shntool] ph99-09-29d1t03.shn
a674d6a6edc5518e7179dadcd67c38ed [shntool] ph99-09-29d1t04.shn
214d844e16d89c591a0e3309b3b0d421 [shntool] ph99-09-29d1t05.shn
f5b4e91c82b4e5765b149c2be54864d9 [shntool] ph99-09-29d1t06.shn
8f8154721dcb60de9e5c66d4f590af1c [shntool] ph99-09-29d1t07.shn
b73a913b18d0a4b0f468e2319cb43081 [shntool] ph99-09-29d1t08.shn
4f73eaf378e4ec1dacfd02cc6bc38cfc [shntool] ph99-09-29d1t09.shn
95ccf3e53c275dc0053ca4c6f86c4d94 [shntool] ph99-09-29d1t10.shn
2db857ab0f4e8492cfdeabe29d6b21bb [shntool] ph99-09-29d2t01.shn
6119028ea7ed9b980fa82bdeb77bc1b1 [shntool] ph99-09-29d2t02.shn
53fd298cb73e14d9ebcd38bf253eaed4 [shntool] ph99-09-29d2t03.shn
844420f3e15f29c3778df46a15074741 [shntool] ph99-09-29d2t04.shn
2bc0c46e6a5ae49812ef8d03126dd78b [shntool] ph99-09-29d2t05.shn
36e1dabd2a76e7401bfb3c07c2f1dc55 [shntool] ph99-09-29d2t06.shn
2f35860ef0e8750b13d9037c78eef02a [shntool] ph99-09-29d2t07.shn
9a326d687241a5615445de8fc838c604 [shntool] ph99-09-29d2t08.shn
3c787d76330fe87a4699f72f29157c41 [shntool] ph99-09-29d2t09.shn
85c3df9753bbcea78cb88b7cd0a5439d [shntool] ph99-09-29d2t10.shn
a246656e21b775c49e7d3a8638fbf304 [shntool] ph99-09-29d2t11.shn
033fcd224ed618ccf06802adfd68c829 [shntool] ph99-09-29d3t01.shn
bdb417f76530f1c0d1a9d748a194330c [shntool] ph99-09-29d3t02.shn
ffp
ph99-09-29d1t01.flac:a9bab359d5b30aa0776af90a7ae496c6
ph99-09-29d1t02.flac:2e262caa42948a59efd4207d3fe18a6d
ph99-09-29d1t03.flac:33c3e01409019b1af56dd671409f7492
ph99-09-29d1t04.flac:a674d6a6edc5518e7179dadcd67c38ed
ph99-09-29d1t05.flac:214d844e16d89c591a0e3309b3b0d421
ph99-09-29d1t06.flac:f5b4e91c82b4e5765b149c2be54864d9
ph99-09-29d1t07.flac:8f8154721dcb60de9e5c66d4f590af1c
ph99-09-29d1t08.flac:b73a913b18d0a4b0f468e2319cb43081
ph99-09-29d1t09.flac:4f73eaf378e4ec1dacfd02cc6bc38cfc
ph99-09-29d1t10.flac:95ccf3e53c275dc0053ca4c6f86c4d94
ph99-09-29d2t01.flac:2db857ab0f4e8492cfdeabe29d6b21bb
ph99-09-29d2t02.flac:6119028ea7ed9b980fa82bdeb77bc1b1
ph99-09-29d2t03.flac:53fd298cb73e14d9ebcd38bf253eaed4
ph99-09-29d2t04.flac:844420f3e15f29c3778df46a15074741
ph99-09-29d2t05.flac:2bc0c46e6a5ae49812ef8d03126dd78b
ph99-09-29d2t06.flac:36e1dabd2a76e7401bfb3c07c2f1dc55
ph99-09-29d2t07.flac:2f35860ef0e8750b13d9037c78eef02a
ph99-09-29d2t08.flac:9a326d687241a5615445de8fc838c604
ph99-09-29d2t09.flac:3c787d76330fe87a4699f72f29157c41
ph99-09-29d2t10.flac:85c3df9753bbcea78cb88b7cd0a5439d
ph99-09-29d2t11.flac:a246656e21b775c49e7d3a8638fbf304
ph99-09-29d3t01.flac:033fcd224ed618ccf06802adfd68c829
ph99-09-29d3t02.flac:bdb417f76530f1c0d1a9d748a194330c
filler-shn-md5
1067e1684d87ea3a447152800d4ce915 *ph98-11-14d3t05.shn
b99916714330917390f9e55f78b865e5 *ph98-11-14d3t04.shn
2ee6a088dd401520087dacc17b5e4be3 *ph98-11-14d3t06.shn
c6ef891779f039312e1ea2d21bd13c4a *ph98-11-14d3t07.shn
31248a6527af3cd68f794972c0deec8d *ph98-11-14d3t03.shn
filler-st5
c11b4d9d9194670b00466dfb22819a31 [shntool] ph98-11-14d3t03.shn
b7b5396c74cc56d447b70370736aac8a [shntool] ph98-11-14d3t04.shn
5befa8ee209e517e69e98f00b047548c [shntool] ph98-11-14d3t05.shn
d3864c0196ab84341c527ae5548e30c9 [shntool] ph98-11-14d3t06.shn
9cabd3339bcbfcccb7b5e0b76162aae7 [shntool] ph98-11-14d3t07.shn
filler-ffp
ph98-11-14d3t03.flac:c11b4d9d9194670b00466dfb22819a31
ph98-11-14d3t04.flac:b7b5396c74cc56d447b70370736aac8a
ph98-11-14d3t05.flac:5befa8ee209e517e69e98f00b047548c
ph98-11-14d3t06.flac:d3864c0196ab84341c527ae5548e30c9
ph98-11-14d3t07.flac:9cabd3339bcbfcccb7b5e0b76162aae7

Comments
Add Comment
Other Sources (comments)
Neumann KM150 > Lunatec V2... (0) FOB Schoeps mk4v> kc5... (2) Schoeps CMC641> AD1000>... (1) flac16, 44kHz;... (0) flac16, 44kHz; AKG... (0) flac16, 44kHz; AKG... (0) flac16, 44kHz; (FOB)... (0) flac16, 44kHz; (FOB)... (0) flac16, 44kHz; AKG... (0) flac16 48kHz Audio... (0) flac16 44.1kHz Audio... (1)
Date User Comment