Browse Collections Artists Sources   Search Dates

Add Show    List Management    Help


Grateful Dead 06/07/80
Folsom Field, U. of Colorado, Boulder, CO
Comments Add Comment    Source Collectors    Add to Collection    Add to Want List    History
Source # 88451 Other Sources
Entered by Matt Vernon
Checksums flac-md5 , ffp
Disc Counts 2 / 3
Media Size
Date Circulated
Date Added
11/13/2007
11/13/2007
Source Summary flac16;Recording by Joani Walker: Sony ECM-250 -> Cassette Master (Sony TC-158/Maxell UDXLII-C90) All Transfers and Mastering By Charlie Miller 
  Archive
Source Information - Download Text | Download Zip
Grateful Dead - June 7, 1980
Folsom Field - Boulder, CO
University of Colorado

Recording Info:
Sony ECM-250 -> Cassette Master (Sony TC-158/Maxell UDXLII-C90)

Transfer Info:
Cassette Master (Nakamichi DR-1) -> Sound Devices 744T (24bit/96k) ->
Samplitude Professional v9.11 -> FLAC/16

All Transfers and Mastering By Charlie Miller
[email protected]
November 12, 2007

Patch Info:
1st Gen Cassette AUD (shnid=31348) supplies:
Drums (6:34 - 7:19)

Notes:
-- Seamless transition between discs 2 and 3
-- Billed as 15th anniversary shows
-- Recorded By Joani Walker right behind the soundboard
-- Thanks to Joani Walker and Paul Scotton for the tapes

Set 1:
d1t01 - Introduction
d1t02 - Jack Straw
d1t03 - Friend Of The Devil ->
d1t04 - El Paso ->
d1t05 - Mama Tried
d1t06 - Ramble On Rose
d1t07 - Passenger
d1t08 - Far From Me
d1t09 - New Minglewood Blues
d1t10 - Loser
d1t11 - Feel Like A Stranger
d1t12 - Deal

Set 2:
d2t01 - Bertha ->
d2t02 - Greatest Story Ever Told
d2t03 - Althea ->
d2t04 - Lost Sailor ->
d2t05 - Saint Of Circumstance ->
d2t06 - Jam  ->
d2t07 - Drums ->
d2t08 - Space ->
d2t09 - Not Fade Away ->
d2t10 - Wharf Rat ->
d2t11 - Good Lovin'

Encore:
d3t01 - Crowd/Tuning
d3t02 - Alabama Getaway ->
d3t03 - One More Saturday Night
d3t04 - U.S. Blues


SHNTOOL OUTPUT:
    length     expanded size   cdr  WAVE problems filename
     0:31.74        5642492    ---   --   -----   gd80-06-07d1t01.wav
     6:43.32       71164508    ---   --   -----   gd80-06-07d1t02.wav
     8:33.15       90528524    ---   --   -----   gd80-06-07d1t03.wav
     4:07.12       43599068    ---   --   -----   gd80-06-07d1t04.wav
     3:14.18       34263980    ---   --   -----   gd80-06-07d1t05.wav
     8:11.60       86753564    ---   --   -----   gd80-06-07d1t06.wav
     5:54.34       62525612    ---   --   -----   gd80-06-07d1t07.wav
     4:16.16       45196076    ---   --   -----   gd80-06-07d1t08.wav
     8:07.39       85998572    ---   --   -----   gd80-06-07d1t09.wav
     8:09.68       86419580    ---   --   -----   gd80-06-07d1t10.wav
     7:50.18       82950380    ---   --   -----   gd80-06-07d1t11.wav
     5:20.72       56617388    ---   --   -----   gd80-06-07d1t12.wav
     7:27.45       78956684    ---   --   -----   gd80-06-07d2t01.wav
     4:06.63       43542620    ---   --   -----   gd80-06-07d2t02.wav
     7:34.55       80215004    ---   --   -----   gd80-06-07d2t03.wav
     6:01.46       63788636    ---   --   -----   gd80-06-07d2t04.wav
     5:32.27       58628348    ---   --   -----   gd80-06-07d2t05.wav
     8:03.14       85234172    ---   --   -----   gd80-06-07d2t06.wav
     7:31.70       79721084    ---   --   -----   gd80-06-07d2t07.wav
     2:13.36       23545916    ---   --   -----   gd80-06-07d2t08.wav
     6:39.67       70541228    ---   --   -----   gd80-06-07d2t09.wav
     8:48.25       93198044    ---   --   -----   gd80-06-07d2t10.wav
     8:02.74       85198892    ---   --   -----   gd80-06-07d2t11.wav
     0:31.42        5567228    ---   --   -----   gd80-06-07d3t01.wav
     4:49.42       51078428    ---   --   -----   gd80-06-07d3t02.wav
     6:03.07       64049708    ---   --   -----   gd80-06-07d3t03.wav
     5:31.00       58388444    ---   --   -----   gd80-06-07d3t04.wav
   159:59.21     1693314180 B                     (totals for 27 files)
Show Checksums
flac-md5
aa5752da3c669c565fcd66e777ffc44c *gd80-06-07d1t01.flac
c63a9a07a3e11908a4e04fa1ac165dbf *gd80-06-07d1t02.flac
81ea9c146697af95f552447e775870c5 *gd80-06-07d1t03.flac
269e6eb3685dc59b3d097144d4ec00fd *gd80-06-07d1t04.flac
66a33e8dea268e03b4c531529e4b8b59 *gd80-06-07d1t05.flac
54599d1cb122851f2061f1a210384086 *gd80-06-07d1t06.flac
0a6f7de1c708be2b437b6e6d4790ccf1 *gd80-06-07d1t07.flac
8117086c0f7b847f9e79c430b95251e8 *gd80-06-07d1t08.flac
22978a1e32be35f7a50221973aab2e8b *gd80-06-07d1t09.flac
a2acd363c5567286f01a025c518eb2c2 *gd80-06-07d1t10.flac
aea502f5e81f80a4c318c10d3b4c4dd0 *gd80-06-07d1t11.flac
0913f932602915dd1fb68e1f4c4b0814 *gd80-06-07d1t12.flac
d3a723e96608621f8be9eb1bf8e7171f *gd80-06-07d2t01.flac
966d8010efc212a5a5270d13dc432630 *gd80-06-07d2t02.flac
4caeeced5ad066743668279a18aed470 *gd80-06-07d2t03.flac
829121779f3c59aa110d359cac51bbe6 *gd80-06-07d2t04.flac
7c6bf18ec93317947b58e8912899b9b5 *gd80-06-07d2t05.flac
64917fabf7e107c37a194c4127898729 *gd80-06-07d2t06.flac
fa38777e68463508852e768ab86e7a68 *gd80-06-07d2t07.flac
7227df8dcbddb1fb559748b85022c979 *gd80-06-07d2t08.flac
d33b9ad8e1563daf2b4d4c0770574192 *gd80-06-07d2t09.flac
d190777d219ea14c11ff0e0b18420f25 *gd80-06-07d2t10.flac
18f0ea9526135e8a0cde38f5b0c41f87 *gd80-06-07d2t11.flac
5042f2f3a3ee08a4bc56f31b26a2fd4d *gd80-06-07d3t01.flac
2ba544d4c478b775c7267b7be217859e *gd80-06-07d3t02.flac
b8b3aee73e118ee7135c2d1235a57408 *gd80-06-07d3t03.flac
a0551cdaff86db1e8b68bd8069ecea1a *gd80-06-07d3t04.flac
ffp
gd80-06-07d1t01.flac:30220595277add3dd0f001f2f576baf1
gd80-06-07d1t02.flac:288ff9ea308fe89e983de124dc2deb39
gd80-06-07d1t03.flac:2fe55ff7ad07ea3b8ac203ef5bdeef3f
gd80-06-07d1t04.flac:6f538262e7d5c79632f95026a8641fcc
gd80-06-07d1t05.flac:03e65dbc8ec5b634692bd3c3e576e2eb
gd80-06-07d1t06.flac:5f737fcb8cf8d8705db9a3f794e331dc
gd80-06-07d1t07.flac:81873489371b4cd23dec7f35fee5cb5d
gd80-06-07d1t08.flac:ff401535710e1b7b3437e74790db7016
gd80-06-07d1t09.flac:f1ec334ed59d4f820ac9992b729280d1
gd80-06-07d1t10.flac:cc8e885e6a2f6c9abcdff9c4b5b81363
gd80-06-07d1t11.flac:03dee14f74b45ba687699ccdd7a7bcce
gd80-06-07d1t12.flac:c90b92bebe47f746a864fbc8a95fe91c
gd80-06-07d2t01.flac:bbd09806b3e84e97b5f742237eeae294
gd80-06-07d2t02.flac:97ff919d03bab4ccf9d1e08a1d29e6e7
gd80-06-07d2t03.flac:7073fc34fee12801468d96f4bc25e816
gd80-06-07d2t04.flac:b34063e947a5f7b162b0bfe4e7df9419
gd80-06-07d2t05.flac:6ca5792701b5085846883226cb47df66
gd80-06-07d2t06.flac:e779f733af4aecb63b0f6797dd4b557d
gd80-06-07d2t07.flac:bd6a37a922da4ae31511693256d5096f
gd80-06-07d2t08.flac:6180ce2193a28858478e11f98aad446c
gd80-06-07d2t09.flac:d658c0ac3cda6cd3975ee2aa1f1f0f3f
gd80-06-07d2t10.flac:fa36a6e41ef0d8760ad2b9f649f6c9d2
gd80-06-07d2t11.flac:5fb82f3378b38a5359cb3cd73ddee08e
gd80-06-07d3t01.flac:e00962b593acbb5064b0152d501017c3
gd80-06-07d3t02.flac:54b40452ecb8f36b7fb494bf22e32993
gd80-06-07d3t03.flac:bc6d2144ae173ab7f19cf7dbc19ee5ac
gd80-06-07d3t04.flac:784bbc719b6e1f1839aeda0e1429ba56

Comments
Add Comment
Other Sources (comments)
Aud>?>CD; Distortion... (0) flac16; mac > 1st... (0) flac16; Recorded by... (0) flac16; Source: Sony... (0) flac16; Recorded By... (0) flac24; Set 1... (0) flac16/48kHz; Set 1... (0)
Date User Comment