Browse Collections Artists Sources   Search Dates

Add Show    List Management    Help


Grateful Dead 06/08/80
Folsom Field, U. of Colorado, Boulder, CO
Comments Add Comment    Source Collectors    Add to Collection    Add to Want List    History
Source # 88452 Other Sources
Entered by Matt Vernon
Checksums flac-md5 , ffp
Disc Counts 2 / 3
Media Size
Date Circulated
Date Added
11/13/2007
11/13/2007
Source Summary flac16; Recording by Joani Walker: Sony ECM-250 -> Cassette Master (Sony TC-158/Maxell UDXLII-C90) All Transfers and Mastering By Charlie Miller 
  Archive
Source Information - Download Text | Download Zip
Grateful Dead - June 8, 1980
Folsom Field - Boulder, CO
University of Colorado

Recording Info:
Sony ECM-250 -> Cassette Master (Sony TC-158/Maxell UDXLII-C90)

Transfer Info:
Cassette Master (Nakamichi DR-1) -> Sound Devices 744T (24bit/96k) ->
Samplitude Professional v9.11 -> FLAC/16

All Transfers and Mastering By Charlie Miller
[email protected]
November 12, 2007

Notes:
-- Set 2 is seamless
-- Billed as 15th anniversary shows
-- Recorded By Joani Walker 8 rows behind the soundboard
-- Thanks to Joani Walker and Paul Scotton for the tapes

Set 1:
d1t01 - Introduction
d1t02 - Uncle John's Band ->
d1t03 - Playing In The Band ->
d1t04 - Uncle John's Band
d1t05 - Me And My Uncle ->
d1t06 - Mexicali Blues
d1t07 - Tennessee Jed
d1t08 - Samson And Delilah
d1t09 - Easy To Love You ->
d1t10 - Althea ->
d1t11 - Looks Like Rain ->
d1t12 - Deal

Set 2:
d2t01 - Tuning
d2t02 - Feel Like A Stranger
d2t03 - Ship Of Fools
d2t04 - Estimated Prophet ->
d2t05 - Eyes Of The World ->
d2t06 - Drums ->
d2t07 - Space ->
d2t08 - Saint Of Circumstance ->
d2t09 - Black Peter ->
d2t10 - Sugar Magnolia

Encore:
d3t01 - Crowd/Tuning
d3t02 - Alabama Getaway ->
d3t03 - Brokedown Palace

Warren Zevon Set:
d3t04 - When Johnny Strikes Up The Band
d3t05 - Excitable Boy
d3t06 - Werewolves Of London

Interview:
d3t07 - Bob Weir


SHNTOOL OUTPUT:
    length     expanded size   cdr  WAVE problems filename
     0:30.46        5400236    ---   --   -----   gd80-06-08d1t01.wav
     9:09.15       96878924    ---   --   -----   gd80-06-08d1t02.wav
     9:00.31       95328956    ---   --   -----   gd80-06-08d1t03.wav
     3:04.27       32521148    ---   --   -----   gd80-06-08d1t04.wav
     2:53.56       30648956    ---   --   -----   gd80-06-08d1t05.wav
     4:43.63       50069420    ---   --   -----   gd80-06-08d1t06.wav
     9:01.39       95524172    ---   --   -----   gd80-06-08d1t07.wav
     7:39.36       81052316    ---   --   -----   gd80-06-08d1t08.wav
     3:39.45       38737484    ---   --   -----   gd80-06-08d1t09.wav
     8:38.55       91504604    ---   --   -----   gd80-06-08d1t10.wav
     8:38.14       91408172    ---   --   -----   gd80-06-08d1t11.wav
     4:42.66       49900076    ---   --   -----   gd80-06-08d1t12.wav
     1:49.59       19366412    ---   --   -----   gd80-06-08d2t01.wav
     9:59.03      105670700    ---   --   -----   gd80-06-08d2t02.wav
     8:46.50       92904044    ---   --   -----   gd80-06-08d2t03.wav
     8:58.67       95060828    ---   --   -----   gd80-06-08d2t04.wav
    13:31.68      143220380    ---   --   -----   gd80-06-08d2t05.wav
     7:56.48       84079340    ---   --   -----   gd80-06-08d2t06.wav
     2:48.29       29703452    ---   --   -----   gd80-06-08d2t07.wav
     5:51.02       61921148    ---   --   -----   gd80-06-08d2t08.wav
     8:49.58       93452060    ---   --   -----   gd80-06-08d2t09.wav
     8:34.39       90761372    ---   --   -----   gd80-06-08d2t10.wav
     0:33.20        5868284    ---   --   -----   gd80-06-08d3t01.wav
     4:53.05       51697004    ---   --   -----   gd80-06-08d3t02.wav
     5:50.51       61859996    ---   --   -----   gd80-06-08d3t03.wav
     3:15.24       34454492    ---   --   -----   gd80-06-08d3t04.wav
     3:57.51       41926796    ---   --   -----   gd80-06-08d3t05.wav
     4:21.50       46158044    ---   --   -----   gd80-06-08d3t06.wav
    25:09.30      266258204    ---   --   -----   gd80-06-08d3t07.wav
   196:50.22     2083337020 B                     (totals for 29 files)
Show Checksums
flac-md5
f4ad8390fdb8bbaca3338f5c8a2eab83 *gd80-06-08d1t01.flac
84a630fe2f38e5cd563aec8b996d4515 *gd80-06-08d1t02.flac
c7935fc913fb93413b99c2f1e7a7d277 *gd80-06-08d1t03.flac
71ac34910773ebb4526a128c9dfd4b3d *gd80-06-08d1t04.flac
c2918e125904c3393e02fef52803e408 *gd80-06-08d1t05.flac
ae75db7fa5bccc4ca60f778b4306e744 *gd80-06-08d1t06.flac
2c6ffa7e6cbc223c968a983b750f0dfd *gd80-06-08d1t07.flac
e7396b8451bbf1af3e6ff0f2422d4542 *gd80-06-08d1t08.flac
9604429f8c1b4aacf3ff4020cde9d880 *gd80-06-08d1t09.flac
4ca8dc656b35f8a7203b7a0b269300b5 *gd80-06-08d1t10.flac
37d67d22fda3b8be1addb200ad8c51cb *gd80-06-08d1t11.flac
0f58518c53d12ad4e902afa6d2ad90bf *gd80-06-08d1t12.flac
085c880bf3effafdc4a2b825c7e558eb *gd80-06-08d2t01.flac
cdff5910ba46138c406884f1ca3e62b3 *gd80-06-08d2t02.flac
fc6d1693b2e730e825b2700a2b6278f9 *gd80-06-08d2t03.flac
ca908e76e63613cd8a177c8085dff7e9 *gd80-06-08d2t04.flac
f82dbea8f5ac6a8384967559b3719900 *gd80-06-08d2t05.flac
f9280722e32cb4cec6b6c21bba0524be *gd80-06-08d2t06.flac
ec6ab1301d2a87cd51026ef1bde8e78d *gd80-06-08d2t07.flac
f62e204f254be94eb7edede469c4523a *gd80-06-08d2t08.flac
b76de5a7f9b4d8efa523648460d639d5 *gd80-06-08d2t09.flac
972dfd18f3dd8327c98ef97b31e66b01 *gd80-06-08d2t10.flac
ebac738161a6a5c1aa15bd92b425ab28 *gd80-06-08d3t01.flac
fc2f58f4fa8399e7334043fd464851b3 *gd80-06-08d3t02.flac
20e9d62e51a5235ae2cb3c976ee8feb5 *gd80-06-08d3t03.flac
87a9dd0df67a1ed8738125e49be54ca3 *gd80-06-08d3t04.flac
42ccc87b8b541591912061939e79253d *gd80-06-08d3t05.flac
5a73b19db3c7e8b47d20b78ac2903d07 *gd80-06-08d3t06.flac
311e4105d91e6c513ee314db348bbd17 *gd80-06-08d3t07.flac
ffp
gd80-06-08d1t01.flac:f3b230f5240b10fd85ad61cc8498a984
gd80-06-08d1t02.flac:dfc03628d7214d70c458c402b0a64fe5
gd80-06-08d1t03.flac:ba30777b17e60eada667281c8e3bb3b6
gd80-06-08d1t04.flac:4be9211a8e3cc2d8e0698f1af0aa304f
gd80-06-08d1t05.flac:72ad01ae7fdc811fa00a1b6ea09b75fd
gd80-06-08d1t06.flac:389e28fd33695b5181f3b341a1593fb7
gd80-06-08d1t07.flac:bdd1411b9f6e7fbbb56736f27f986c17
gd80-06-08d1t08.flac:de966e69514ba0c3625b0b25dc8140c6
gd80-06-08d1t09.flac:ce932287f9a807b5a4f85b227fed8def
gd80-06-08d1t10.flac:baa18da37d69f51d3c2123042787e903
gd80-06-08d1t11.flac:d91bf659d946ef6fa6be7a7955997be1
gd80-06-08d1t12.flac:1218ab6a705dce1c23d94f15ee93bc86
gd80-06-08d2t01.flac:21ccacb4f678a89c66e0e0f12e9ed85a
gd80-06-08d2t02.flac:9b401b04c2fe3acbdfbe84b227079021
gd80-06-08d2t03.flac:5d6d1197a71cf041174d49b0b77e68f6
gd80-06-08d2t04.flac:fd6500949ae7643ea875ff25933d9c6d
gd80-06-08d2t05.flac:c048aeacd577daefdb27acacfb97923d
gd80-06-08d2t06.flac:860f1fe48879f3c8545aed4c27f01cd8
gd80-06-08d2t07.flac:621028552c7845fde3befdb16679def8
gd80-06-08d2t08.flac:7edc1baee07d0a411327ee1ae175a955
gd80-06-08d2t09.flac:d2e80f81c94eafffd78cc8dde762b095
gd80-06-08d2t10.flac:0bd83c4a421f728801230583a60b8a60
gd80-06-08d3t01.flac:d3cab1aac71fc06f310044cdd96d2fef
gd80-06-08d3t02.flac:70f9d71646cc5562d9fc9f6fb9d4d71c
gd80-06-08d3t03.flac:9a51088a1c19c0d7631cfd340a259a08
gd80-06-08d3t04.flac:88501fb574f3a114312ce051d5405a79
gd80-06-08d3t05.flac:63be22347aea056a95f610bb1734f418
gd80-06-08d3t06.flac:29cb68d99bef81653080920872fe3af3
gd80-06-08d3t07.flac:0056cfe44313284539240b025c17a320

Comments
Add Comment
Other Sources (comments)
Recording by Rob Eaton: FOB... (1) Master Audience Cassette;... (0) flac16; Sony ECM-990... (0) flac16; Recorded By... (0) flac24; Set 2... (0) flac16/48kHz; Set 2... (0)
Date User Comment
11/19/2007 charlie miller I forgot to mention that I don't know the source of the Warren Zevon opening set. It was filler on Joani's master cassette. Also, that is not Warren's complete set (obviously).