Browse Collections Artists Sources   Search Dates

Add Show    List Management    Help


Grateful Dead 11/11/73
Winterland Arena, San Francisco, CA
Comments Add Comment    Source Collectors    Add to Collection    Add to Want List    History
Source # 88485 Other Sources
Entered by Matt Vernon
Checksums ffp , flac-md5
Disc Counts 2 / 3
Media Size
Date Circulated
Date Added
11/15/2007
11/15/2007
Source Summary flac16; Recording Info: SBD -> Master Reel -> Cassette -> Dat (44.1k) Transfer Info: Dat (Sony R500) -> Samplitude Professional v9.02 -> Cool Edit Pro v2.01 -> FLAC (Pitch correction of shn id 83318) All Transfers and Mastering By Charlie Miller 
  Archive
Source Information - Download Text | Download Zip
Grateful Dead - November 11, 1973
Winterland Arena - San Francisco, CA

Recording Info:
SBD -> Master Reel -> Cassette -> Dat (44.1k)

Transfer Info:
Dat (Sony R500) -> Samplitude Professional v9.02 -> Cool Edit Pro v2.01 -> FLAC
(3 Discs Audio / 2 Discs FLAC)

All Transfers and Mastering By Charlie Miller
[email protected]
November 14, 2007

Patch Info:
SBD -> ? -> Dat -> CD supplies:
Eyes Of The World (7:47 - 8:13)

Notes:
-- All disc changes are seamless
-- Thanks to Steve Rolfe for lending me his Dats
-- Pitch corrected with Cool Edit Pro (+0.9%)
-- Thanks to Rob Bertrando for his help with the picth correction
-- This source has more tuning leading up to Dark Star
-- This source does not have the cut at the start of Eyes

Set 1:
d1t01 - The Promised Land ->
d1t02 - Bertha ->
d1t03 - Greatest Story Ever Told
d1t04 - Sugaree
d1t05 - Black Throated Wind
d1t06 - To Lay Me Down
d1t07 - El Paso
d1t08 - Ramble On Rose
d1t09 - Me And Bobby McGee
d1t10 - China Cat Sunflower ->
d1t11 - I Know You Rider
d1t12 - Me And My Uncle
d2t01 - Loose Lucy
d2t02 - Weather Report Suite ->
d2t03 - Let It Grow

Set 2:
d2t04 - Mississippi Half-Step Uptown Toodeloo
d2t05 - Big River
d3t01 - Dark Star ->
d3t02 - Mind Left Body Jam ->
d3t03 - Eyes Of The World ->
d3t04 - China Doll
d3t05 - Sugar Magnolia

Encore:
d3t06 - Uncle John's Band
d3t07 - Johnny B. Goode ->
d3t08 - And We Bid You Good Night


SHNTOOL OUTPUT:
    length     expanded size   cdr  WAVE problems filename
     3:00.31       31824956    ---   --   -----   gd73-11-11d1t01.wav
     5:57.30       63045404    ---   --   -----   gd73-11-11d1t02.wav
     5:57.56       63106556    ---   --   -----   gd73-11-11d1t03.wav
     7:21.15       77827724    ---   --   -----   gd73-11-11d1t04.wav
     7:10.39       75943772    ---   --   -----   gd73-11-11d1t05.wav
     8:02.22       85076588    ---   --   -----   gd73-11-11d1t06.wav
     4:34.04       48343052    ---   --   -----   gd73-11-11d1t07.wav
     7:07.51       75442796    ---   --   -----   gd73-11-11d1t08.wav
     6:01.38       63769820    ---   --   -----   gd73-11-11d1t09.wav
     9:17.11       98280716    ---   --   -----   gd73-11-11d1t10.wav
     5:55.54       62749052    ---   --   -----   gd73-11-11d1t11.wav
     3:14.57       34355708    ---   --   -----   gd73-11-11d1t12.wav
     7:24.14       78354572    ---   --   -----   gd73-11-11d2t01.wav
     5:39.52       59921948    ---   --   -----   gd73-11-11d2t02.wav
     9:07.07       96507308    ---   --   -----   gd73-11-11d2t03.wav
     8:26.55       89387804    ---   --   -----   gd73-11-11d2t04.wav
     5:24.08       57172460    ---   --   -----   gd73-11-11d2t05.wav
    31:43.36      335773916    ---   --   -----   gd73-11-11d3t01.wav
     4:23.65       46546124    ---   --   -----   gd73-11-11d3t02.wav
    13:35.06      143780156    ---   --   -----   gd73-11-11d3t03.wav
     5:21.35       56706764    ---   --   -----   gd73-11-11d3t04.wav
    10:12.69      108119132    ---   --   -----   gd73-11-11d3t05.wav
     7:36.71       80605436    ---   --   -----   gd73-11-11d3t06.wav
     3:52.42       41023628    ---   --   -----   gd73-11-11d3t07.wav
     3:07.34       33066812    ---   --   -----   gd73-11-11d3t08.wav
   189:36.02     2006732204 B                     (totals for 25 files)
Show Checksums
ffp
gd73-11-11d1t01.flac:4cbfce461522e2850b74d645a9ced861
gd73-11-11d1t02.flac:ad7ca2b42ebb0b71f725e458ad4901ab
gd73-11-11d1t03.flac:612cf6ce8a95c826508647f3bc98cc40
gd73-11-11d1t04.flac:016666c14c9e298f525b40159d0b0733
gd73-11-11d1t05.flac:4673edf1b22bd4f91845a1527ca6ffff
gd73-11-11d1t06.flac:284aa7cf7b3b1037015947d6405f1a0c
gd73-11-11d1t07.flac:72a3d74fee20d11b72c6190c014f5c33
gd73-11-11d1t08.flac:b0f85e817c2aad2847761063c00e43fb
gd73-11-11d1t09.flac:36892e3e8632cc24be87071246a519c3
gd73-11-11d1t10.flac:48b5d7c06b15f8401ceddf68c2b366c5
gd73-11-11d1t11.flac:107a9f038788ced7f6ae83811bbb101d
gd73-11-11d1t12.flac:7856a9cd9bb463c933e51f9f09c7c2d4
gd73-11-11d2t01.flac:0aa3af379c0d1b864f70fe2c1903c6c2
gd73-11-11d2t02.flac:a918efc878597a1c84e3352b19a1f3c4
gd73-11-11d2t03.flac:edf2fabef6be9b689d3b34590400d55c
gd73-11-11d2t04.flac:bb84f3aeaac8b2063419af4f345181ad
gd73-11-11d2t05.flac:1521be5c4e996d9529077cf9230648c3
gd73-11-11d3t01.flac:674e57b06640c77916117b2eebe35ebd
gd73-11-11d3t02.flac:c28a3f4175a951ba052b658ed857b128
gd73-11-11d3t03.flac:78eb7edbaa5c10692ab5b437846f8711
gd73-11-11d3t04.flac:6cc2e4e141bea226d1795be96958131f
gd73-11-11d3t05.flac:3219c463dde81b61be9caf2ebb6859cc
gd73-11-11d3t06.flac:4bd3f47aff2a7e08a4f15242220bff89
gd73-11-11d3t07.flac:a9bc3a675d633d809794f4cf85c82daf
gd73-11-11d3t08.flac:f5c57781a0ac3bb0104adffee930f1c4
flac-md5
d134f5e54f181c0be76045e2c4cb30f3 *gd73-11-11d1t01.flac
bf34ea4f5f967770af352b6b2bca523f *gd73-11-11d1t02.flac
23a795976af4b72437b09812e22d83ec *gd73-11-11d1t03.flac
f58c7f7b525d736477decf6e23b3e2d2 *gd73-11-11d1t04.flac
a42614d1ab5e2fb3d74595ca58847bec *gd73-11-11d1t05.flac
4a87b96cdca0d43e3dba01cda803641b *gd73-11-11d1t06.flac
6f385846ce9c2f8e1b941d7e0303732a *gd73-11-11d1t07.flac
5ad3241b6c7e4ea433038b8789144334 *gd73-11-11d1t08.flac
a702caf3f2c81537e7ef2f71cac1a618 *gd73-11-11d1t09.flac
98a6f9b41f5eb5104b823b71c48781f3 *gd73-11-11d1t10.flac
f22ce5a294bc64487168c1fa23245126 *gd73-11-11d1t11.flac
7871b595c7d5f0a71779c6da8ee676b6 *gd73-11-11d1t12.flac
ec5a0c60142d28eb7ab506b025b38e55 *gd73-11-11d2t01.flac
c2a8e8b1e5914fb1390de68440d558e5 *gd73-11-11d2t02.flac
e7316bef21499f659b0c22313a630430 *gd73-11-11d2t03.flac
c78aab297f55b8023b9672a40b534add *gd73-11-11d2t04.flac
37bd7f127f3447b8d7ae04fe68ef8714 *gd73-11-11d2t05.flac
269c8e60116332397cfc20b76c8eaa32 *gd73-11-11d3t01.flac
0f3feec09f1e17e7860628a466235588 *gd73-11-11d3t02.flac
d2ff774fa468f84b9715534a05ec6d77 *gd73-11-11d3t03.flac
0e95d09225cc8bf366a2a05692e05b6c *gd73-11-11d3t04.flac
90c5060571339821081ea03cfa47db15 *gd73-11-11d3t05.flac
745d65f4ba021e1cf9ae5a96290739f0 *gd73-11-11d3t06.flac
26bcff7f46851944a91e1bb3f5d4e979 *gd73-11-11d3t07.flac
3daa60c93c81b19018a9cd71eda02bf8 *gd73-11-11d3t08.flac

Comments
Add Comment
Other Sources (comments)
Source: Disks 1-2 MSR>... (1) Shntool fix (by Tony... (2) Pitch correction applied by... (0) flac16; Recording... (0)
Date User Comment