Browse Collections Artists Sources   Search Dates

Add Show    List Management    Help


Grateful Dead 06/22/73
P.N.E. Coliseum, Vancouver, BC
Comments Add Comment    Source Collectors    Add to Collection    Add to Want List    History
Source # 88526 Other Sources
Entered by Matt Vernon
Checksums ffp , flac-md5
Disc Counts 2 / 5
Media Size
Date Circulated
Date Added
11/16/2007
11/16/2007
Source Summary flac16; Recording Info: SBD -> Master Reel -> PCM -> Dat (44.1k) Transfer Info: Dat (Sony R500) -> Sound Devices 744T -> Samplitude Professional v9.12 -> FLAC All Transfers and Mastering By Charlie Miller 
  Archive
Source Information - Download Text | Download Zip
Grateful Dead - June 22, 1973
P.N.E. Coliseum - Vancouver, BC

Recording Info:
SBD -> Master Reel -> PCM -> Dat (44.1k)

Transfer Info:
Dat (Sony R500) -> Sound Devices 744T -> Samplitude Professional v9.12 -> FLAC
(5 Discs Audio / 2 Discs FLAC)

All Transfers and Mastering By Charlie Miller
[email protected]
November 15, 2007

Patch Info:
(FOB) Sony ECM Mics->Cassette Master->Reel->Reel->CD (shnid=16889) supplies:
Bertha (0:00 - 1:23)
Big Railroad Blues (0:00 - 0:17)
The Other One (5:44 - 12:54)
Casey Jones (6:07 - end of show)

SBD -> Master Cassette -> Reel -> Cassette -> HD (shnid=85957) supplies:
Bird Song (Numerous patches to fix tracking problems)
The Race Is On (0:00 - 0:23)
I Know You Rider (2:01 - 3:12)

SBD -> Master Reel -> Cassette -> Dat -> CD supplies
Truckin' (7:51 - end of Casey Jones)

Notes:
-- Each set is seamless
-- Patch SBD (shnid=85957) pitch adjusted to match Master Reel SBD
-- Truckin' contains Nobody's Fault But Mine Jam
-- The Encore will fit on end of 1st Set

Set 1:
d1t01 - Bertha
d1t02 - Beat It On Down The Line
d1t03 - Deal
d1t04 - Mexicali Blues
d1t05 - Box Of Rain
d1t06 - Bird Song
d1t07 - The Race Is On
d1t08 - Sugaree
d1t09 - Looks Like Rain
d1t10 - Row Jimmy
d1t11 - Jack Straw
d2t01 - China Cat Sunflower ->
d2t02 - I Know You Rider
d2t03 - Big River
d2t04 - Tennessee Jed
d2t05 - Playing In The Band

Set 2:
d3t01 - Here Comes Sunshine
d3t02 - The Promised Land
d3t03 - Brown Eyed Women
d3t04 - El Paso
d3t05 - Black Peter
d3t06 - Greatest Story Ever Told
d3t07 - Big Railroad Blues
d4t01 - He's Gone ->
d4t02 - Truckin' ->
d4t03 - The Other One ->
d4t04 - Wharf Rat ->
d4t05 - Sugar Magnolia
d4t06 - Casey Jones

Encore:
d5t01 - Johnny B. Goode


SHNTOOL OUTPUT:
    length     expanded size   cdr  WAVE problems filename
     6:18.14       66712172    ---   --   -----   gd73-06-22d1t01.wav
     3:36.59       38241212    ---   --   -----   gd73-06-22d1t02.wav
     4:54.29       51929852    ---   --   -----   gd73-06-22d1t03.wav
     3:44.50       39631244    ---   --   -----   gd73-06-22d1t04.wav
     5:09.65       54660524    ---   --   -----   gd73-06-22d1t05.wav
    14:00.61      148319516    ---   --   -----   gd73-06-22d1t06.wav
     3:04.34       32537612    ---   --   -----   gd73-06-22d1t07.wav
     7:31.13       79587020    ---   --   -----   gd73-06-22d1t08.wav
     7:37.60       80755964    ---   --   -----   gd73-06-22d1t09.wav
     9:03.06       95799356    ---   --   -----   gd73-06-22d1t10.wav
     4:54.46       51969836    ---   --   -----   gd73-06-22d1t11.wav
     8:37.20       91245884    ---   --   -----   gd73-06-22d2t01.wav
     5:29.11       58061516    ---   --   -----   gd73-06-22d2t02.wav
     4:40.15       49427324    ---   --   -----   gd73-06-22d2t03.wav
     7:43.68       81833180    ---   --   -----   gd73-06-22d2t04.wav
    18:49.59      199294412    ---   --   -----   gd73-06-22d2t05.wav
    11:55.65      126278924    ---   --   -----   gd73-06-22d3t01.wav
     2:46.73       29454140    ---   --   -----   gd73-06-22d3t02.wav
     6:26.29       68158652    ---   --   -----   gd73-06-22d3t03.wav
     5:45.74       61032092    ---   --   -----   gd73-06-22d3t04.wav
     9:48.18      103765580    ---   --   -----   gd73-06-22d3t05.wav
     4:57.44       52494332    ---   --   -----   gd73-06-22d3t06.wav
     3:45.61       39833516    ---   --   -----   gd73-06-22d3t07.wav
    11:23.17      120521228    ---   --   -----   gd73-06-22d4t01.wav
    26:22.13      279095420    ---   --   -----   gd73-06-22d4t02.wav
    15:11.38      160789820    ---   --   -----   gd73-06-22d4t03.wav
     7:56.35       84048764    ---   --   -----   gd73-06-22d4t04.wav
     9:51.53      104377100    ---   --   -----   gd73-06-22d4t05.wav
     6:41.46       70844636    ---   --   -----   gd73-06-22d4t06.wav
     3:54.66       41432876    ---   --   -----   gd73-06-22d5t01.wav
   242:04.42     2562133704 B                     (totals for 30 files)
Show Checksums
ffp
gd73-06-22d1t01.flac:ef72cb1fd53c84af8c82b720d1a1ae14
gd73-06-22d1t02.flac:0f75ab12fa1e87aea51b689533c00a86
gd73-06-22d1t03.flac:c7d4bb2f9f64dc65fb1d63a13edb397f
gd73-06-22d1t04.flac:e80bdd996023bc2bd49bfc7af1e3f5a5
gd73-06-22d1t05.flac:c2077b26993f839b0f7dc777e0b689ef
gd73-06-22d1t06.flac:1c08052225f71048204222ffcc4fcbcd
gd73-06-22d1t07.flac:5c10d26454f6c0103637640a0521cf0f
gd73-06-22d1t08.flac:111347ca238281fa699d36c639e3d57b
gd73-06-22d1t09.flac:c6576f1eeea739392c0c6ef330fcf0c1
gd73-06-22d1t10.flac:1014570f03fd8a1d6bb7254236eedf46
gd73-06-22d1t11.flac:5d66dbf70e45e48efee86b9a927d411a
gd73-06-22d2t01.flac:7a94cd6ef595f84ffd449fce2852a2ed
gd73-06-22d2t02.flac:9da8ab615932321db172ab07e21a1599
gd73-06-22d2t03.flac:fe597b16fc04a5de82466bfd7583a057
gd73-06-22d2t04.flac:422bdc99e7353be9aebfd3264a149fa7
gd73-06-22d2t05.flac:eadc02860ff714e29095838413be2700
gd73-06-22d3t01.flac:938d4d82574543a0c740923d946f7426
gd73-06-22d3t02.flac:45de510f17a1fc3e91fb9c279100b9fb
gd73-06-22d3t03.flac:23f37a9948475ba1e44c83da6924c995
gd73-06-22d3t04.flac:f62370a2723022852dc15c57884a9b4c
gd73-06-22d3t05.flac:549d9a84b9e90f1340d2a8708ac32ce6
gd73-06-22d3t06.flac:e9884cd77b541bfee9e18b96211ee616
gd73-06-22d3t07.flac:c2c032618aa55cadbe16f5223364b150
gd73-06-22d4t01.flac:6030b088cc6b077dec8205dbdc2fa1ae
gd73-06-22d4t02.flac:b1abee4f9aee624058458349d3132bb7
gd73-06-22d4t03.flac:20aca797c2f30d231325ccdda31fa012
gd73-06-22d4t04.flac:95df50f30f4445653b013fa49f1e2877
gd73-06-22d4t05.flac:d9283a708ba7dab14c0d31acb0e66823
gd73-06-22d4t06.flac:918b9ede06144424346848298c32ca56
gd73-06-22d5t01.flac:c8faca9d24fcfe9166a7f922dd059674
flac-md5
5894b23818e64a9dceba8192f82f35a0 *gd73-06-22d1t01.flac
d9a6833dba08c541c9f147202d8fd9a8 *gd73-06-22d1t02.flac
25a11d6f66eea379e666da5bfba6e0a1 *gd73-06-22d1t03.flac
fdca1e50edbb2c44cda23344cf71cbae *gd73-06-22d1t04.flac
f80c8c60884880c6cfddf351f375987d *gd73-06-22d1t05.flac
1ad795050c358111739d32e76feb069c *gd73-06-22d1t06.flac
130812ebf84947594ea85aa8cd4ccf89 *gd73-06-22d1t07.flac
b5d4b39df017ae5b1a39a57e0b184815 *gd73-06-22d1t08.flac
84a63b0c33e0cc6c674e9a39bb569e30 *gd73-06-22d1t09.flac
e01d9eb973e00883d470e831831f8434 *gd73-06-22d1t10.flac
15278ff156e3023287538d2fc59bdcfc *gd73-06-22d1t11.flac
fd2d8a6ab0b16fa1fb3ae08fac5d0511 *gd73-06-22d2t01.flac
00067b2986a090522e2a9f946bd3b089 *gd73-06-22d2t02.flac
d621003d22b491fab4ced60a06c5db88 *gd73-06-22d2t03.flac
987b95a1932dc07bc15555b51cc0244d *gd73-06-22d2t04.flac
b3a0c3385b76d747c977364cbc38cc9d *gd73-06-22d2t05.flac
46f9c7497513fd18fb65a681f0b9361d *gd73-06-22d3t01.flac
1e928c15f4be9840ba52f754b7aee54b *gd73-06-22d3t02.flac
30f792775f85f142e862f0fa0994b98b *gd73-06-22d3t03.flac
fd679d3e7922d68cd71e301c91244be0 *gd73-06-22d3t04.flac
6bc21c4e80da13f090ea67fc7d8c86ea *gd73-06-22d3t05.flac
b1bec34d9c7febb26302e484338bbcc3 *gd73-06-22d3t06.flac
3803930e8dfd9a71ae3f913ab77d48ea *gd73-06-22d3t07.flac
bb4387f5474d80c9e86128c0a2252a83 *gd73-06-22d4t01.flac
78b9692984ffa0f583dc852e28f52f8e *gd73-06-22d4t02.flac
d69b42051702c98fdb7d3225f6c835aa *gd73-06-22d4t03.flac
f642d397ab281036615ca3c12027b1f3 *gd73-06-22d4t04.flac
d5ac6857856238368ccbb7af1e15e4de *gd73-06-22d4t05.flac
e47e802fc9716f9f28b5450b943dfbce *gd73-06-22d4t06.flac
7f6d99355d32586de1ba1f55b3e21921 *gd73-06-22d5t01.flac

Comments
Add Comment
Other Sources (comments)
Master Sounbdoard Reel >... (3) AUDMC > Reel > Reel > CD >... (0) composite: MSR> PCM> DAT>... (4) flac16; partial set... (2) flac16; Main source... (0) flac16; SBD/AUD... (0) flac16; Souree Info:... (1) flac16; Souree Info:... (0) flac16; Souree Info:... (0)
Date User Comment