Browse Collections Artists Sources   Search Dates

Add Show    List Management    Help


Grateful Dead 07/01/73
Universal Amphitheatre, Universal City, CA
Comments Add Comment    Source Collectors    Add to Collection    Add to Want List    History
Source # 88608 Other Sources
Entered by Matt Vernon
Checksums ffp , flac-md5
Disc Counts 5 / 0
Media Size
Date Circulated
Date Added
11/19/2007
11/19/2007
Source Summary flac24 MOTB Release: 0055 24/96 Source: FOB Audience Recording Media: MAR = Unknown, R1 = Maxell UD 35-90 Lineage: Sony ECM-22P > Sony TC-770 > MAR > ?? [Dolby Encode] > R1 Transfer: R1 > Technics RS-1506 > TEAC AN-300 [Dolby Decode] > Grace Design Lunatec V3 [Pre-Only] > Korg MR-1000 > DSF [1-bit 5.6448 MHz Stereo] > Korg AudioGate > WAV [24/96] Taped by: Harv Kaslow and Craig Todd MAR > R1 Copy by: Rob Bertrando R1 Provided by: Barry Glassberg Transfer by: A. Egert Mastering by: J. Waddell 
  Archive
Source Information - Download Text | Download Zip
MOTB Release: 0055 24/96
Release Date: 2007-11-19
Band: Grateful Dead
Date: 1973-07-01
Venue: Universal Amphitheatre
Location:  Universal City, CA
Source: FOB Audience Recording
Media: MAR = Unknown, R1 = Maxell UD 35-90
Lineage: Sony ECM-22P > Sony TC-770 > MAR > ?? [Dolby Encode] > R1
Transfer: R1 > Technics RS-1506 > TEAC AN-300 [Dolby Decode] > Grace Design Lunatec V3 [Pre-Only] > Korg MR-1000 > DSF [1-bit 5.6448 MHz Stereo] > Korg AudioGate > WAV [24/96]
Taped by: Harv Kaslow and Craig Todd
MAR > R1 Copy by: Rob Bertrando
R1 Provided by: Barry Glassberg
Transfer by: A. Egert
Mastering by: J. Waddell

Set 1
s1t01 - Mississippi Half-Step Uptown Toodleloo
s1t02 - Me And My Uncle
s1t03 - Sugaree
s1t04 - The Race Is On
s1t05 - Brown Eyed Women
s1t06 - Looks Like Rain
s1t07 - Don't Ease Me In
s1t08 - Big River
s1t09 - China Cat Sunflower >
s1t10 - I Know You Rider
s1t11 - Around And Around

Set 2
s2t01 - Playing In The Band
s2t02 - Row Jimmy
s2t03 - El Paso
s2t04 - Loose Lucy
s2t05 - Truckin' >
s2t06 - The Other One Tease > Drums > The Other One >
s2t07 - Space Jam >
s2t08 - Wharf Rat >
s2t09 - Me And Bobby McGee
s2t10 - Casey Jones

Mastering Notes:
-- Edited and mastered on the GEMS Edit Station.

Notes:
-- d2t02 - Cut in Row Jimmy at about 1:15; missing most of second verse and part of the subsequent chorus. No known patch source currently circulates.
-- d3t02 - Only the first verse of The Other One was performed, but preceded by an extended instrumental prologue.

SHNTOOL OUTPUT:
    length     expanded size   cdr  WAVE problems filename
     8:08.603     281435660    cxx   --   ---xx   gd1973-07-01.motb.0055.s1t01.flac
     3:42.595     128214620    cxx   --   ---xx   gd1973-07-01.motb.0055.s1t02.flac
     7:17.356     251916884    cxx   --   ---xx   gd1973-07-01.motb.0055.s1t03.flac
     3:21.041     115799588    cxx   --   ---xx   gd1973-07-01.motb.0055.s1t04.flac
     5:04.327     175292252    cxx   --   ---xx   gd1973-07-01.motb.0055.s1t05.flac
     7:16.431     251384156    cxx   --   ---xx   gd1973-07-01.motb.0055.s1t06.flac
     4:17.575     148363028    cxx   --   ---xx   gd1973-07-01.motb.0055.s1t07.flac
     4:45.517     164457764    cxx   --   ---xx   gd1973-07-01.motb.0055.s1t08.flac
     4:58.006     171651356    cxx   --   ---xx   gd1973-07-01.motb.0055.s1t09.flac
     8:47.271     303707924    cxx   --   ---xx   gd1973-07-01.motb.0055.s1t10.flac
     5:08.326     177596036    cxx   --   ---xx   gd1973-07-01.motb.0055.s1t11.flac
    25:41.271     887771852    cxx   --   ---xx   gd1973-07-01.motb.0055.s2t01.flac
     8:44.508     302116796    cxx   --   ---xx   gd1973-07-01.motb.0055.s2t02.flac
     4:47.752     165745484    cxx   --   ---xx   gd1973-07-01.motb.0055.s2t03.flac
     8:07.550     280828844    cxx   --   ---xx   gd1973-07-01.motb.0055.s2t04.flac
     7:53.052     272478068    cxx   --   ---xx   gd1973-07-01.motb.0055.s2t05.flac
    13:10.817     455510708    cxx   --   ---xx   gd1973-07-01.motb.0055.s2t06.flac
     9:36.234     331910756    cxx   --   ---xx   gd1973-07-01.motb.0055.s2t07.flac
     8:56.844     309222188    cxx   --   ---xx   gd1973-07-01.motb.0055.s2t08.flac
     6:00.720     207774548    cxx   --   ---xx   gd1973-07-01.motb.0055.s2t09.flac
     6:37.133     228748508    cxx   --   ---xx   gd1973-07-01.motb.0055.s2t10.flac
   162:22.927    5611927020 B                     (totals for 21 files, 0.6215 overall compression ratio)

Show Checksums
ffp
gd1973-07-01.motb.0055.s1t01.flac:ad3c76e681caae7e8b86c80df8eed437
gd1973-07-01.motb.0055.s1t02.flac:b3bc0c2bf3edffe34b83150404c86a3e
gd1973-07-01.motb.0055.s1t03.flac:68151721689c05b84e1db1c9c555c517
gd1973-07-01.motb.0055.s1t04.flac:e771ec0f29abd49e520858b6b8336f21
gd1973-07-01.motb.0055.s1t05.flac:a1f48dd997cf7b6c02c3992989c0d3cb
gd1973-07-01.motb.0055.s1t06.flac:f9b697a382c2d31f5f43ee11bcd1c353
gd1973-07-01.motb.0055.s1t07.flac:762da74cc31495dab505f1f1b15dd064
gd1973-07-01.motb.0055.s1t08.flac:04a2c57cf2fe711a217ccc608bfbd02c
gd1973-07-01.motb.0055.s1t09.flac:980813e4bafbc15a9bc13bfa80b3ea0d
gd1973-07-01.motb.0055.s1t10.flac:b4bd848d3cc6184bacdd0b3c4942a834
gd1973-07-01.motb.0055.s1t11.flac:e1b9333ad916b8d7df5f8a2d6bd78983
gd1973-07-01.motb.0055.s2t01.flac:71602537b9945b04af37d5cf48908cfc
gd1973-07-01.motb.0055.s2t02.flac:a5fbd6d3fc281de46d47577525115c85
gd1973-07-01.motb.0055.s2t03.flac:d04a91aeb785966bbc0a455294b4128b
gd1973-07-01.motb.0055.s2t04.flac:5b564332c52872e92401ecbf31761eac
gd1973-07-01.motb.0055.s2t05.flac:c74dd368c215608a0f30b3513015faa1
gd1973-07-01.motb.0055.s2t06.flac:b4acd40c2121018686f98971056d09df
gd1973-07-01.motb.0055.s2t07.flac:8cb0c523eace6035cee5eb3c25b25c34
gd1973-07-01.motb.0055.s2t08.flac:3a613116142de75aff822558a7888b42
gd1973-07-01.motb.0055.s2t09.flac:22ea252466412827b6a6ddbaf5f76fee
gd1973-07-01.motb.0055.s2t10.flac:b834f7c69a1f8929d47dc1b337313e70
flac-md5
a44165a3385349c6d147a990f971bbaa *gd1973-07-01.motb.0055.s1t01.flac
bd24039a573536745f6b9db30e5d9df7 *gd1973-07-01.motb.0055.s1t02.flac
09fbba601cc04e0ba60fa22ae0bc6e53 *gd1973-07-01.motb.0055.s1t03.flac
64ffea0bcb3f57fdf57912639cbd5533 *gd1973-07-01.motb.0055.s1t04.flac
e963acd40e32fb63312d9140ad161743 *gd1973-07-01.motb.0055.s1t05.flac
ba4d75315be40e97fcd9fc79396bca60 *gd1973-07-01.motb.0055.s1t06.flac
51737b10272371dc45e10a7fed08c198 *gd1973-07-01.motb.0055.s1t07.flac
b6886ae009b5022b7931e75c6e66df58 *gd1973-07-01.motb.0055.s1t08.flac
3bdbe5b0264e7ef46eb761f3ce5c9837 *gd1973-07-01.motb.0055.s1t09.flac
511481c6012a6227a8afcafd92495570 *gd1973-07-01.motb.0055.s1t10.flac
c9ddc7c3b54bb3a9e98484324327cefa *gd1973-07-01.motb.0055.s1t11.flac
dcfbb37dae3db230b16257476182c7e0 *gd1973-07-01.motb.0055.s2t01.flac
b67c2e4a9ebe20c280734afb3ec84757 *gd1973-07-01.motb.0055.s2t02.flac
73201ef532208f5818fd612d2ded0d5f *gd1973-07-01.motb.0055.s2t03.flac
6773b8bbc81d894e3054b06eb1b592d5 *gd1973-07-01.motb.0055.s2t04.flac
98454cd5a80e8158ceac8c3d1177d6a7 *gd1973-07-01.motb.0055.s2t05.flac
4773c7267df779600f00f306c8d01f4d *gd1973-07-01.motb.0055.s2t06.flac
0fbef018bf6a2124aa0fcee57097fd11 *gd1973-07-01.motb.0055.s2t07.flac
9b79f6e3d8a3f432f8992ffe55fe8f24 *gd1973-07-01.motb.0055.s2t08.flac
05bb723a4fa394cd5e85d42c6e39a2ce *gd1973-07-01.motb.0055.s2t09.flac
89af0f06e5f9e05478976e6c7b2798c1 *gd1973-07-01.motb.0055.s2t10.flac

Comments
Add Comment
Other Sources (comments)
daud> Sony ec M22P mics... (3) flac16 Source: SBD >... (0) flac16 MOTB Release:... (1) flac16; Matrix 2... (0) DTS Audio 5.1; SBD... (0) flac16; Recording... (0) flac16; Matrix by... (0)
Date User Comment