Browse Collections Artists Sources   Search Dates

Add Show    List Management    Help


Phish 07/03/95
Sugarbush Summerstage, North Fayston, VT
Comments Add Comment    Source Collectors    Add to Collection    Add to Want List    History
Source # 88818 Other Sources
Entered by Ben Mohr
Checksums all_ffp , all_wav_md5
Disc Counts 2 / 3
Media Size
Date Circulated
Date Added
11/26/2007
11/26/2007
Source Summary AKG 460b/ck61 > custom pre-amp > Sony D7 @48kHz; Tascam DA-20mkII > Tascam HD-P2 > WaveLab 5.01b > r8brain v1.9 (48>44.1 kHz) > CDWav > FLAC; Taped by Dave Flaschner; Transferred by Jason Sobel 
Source Information - Download Text | Download Zip
Phish
July 3, 1995
Summerstage at Sugarbush North
Fayston, VT

source:
AKG 460B/ck61 > custom pre-amp > Sony D7 (@ 48kHz)

transfer:
Tascam DA-20MKII > Tascam HD-P2 > CF card > usb 2.0 > pc > WaveLab 5.01b (fades) > r8brain v1.9 (resample to 44.1 kHz) > CD Wave v1.96.1 > FLAC v1.2.1 (Level 8)

FLAC tags added with metaflac v1.2.1

recorded by Dave Flaschner
transferred by Jason Sobel ([email protected])
seeded November 26, 2007

notes:
The original 48 kHz .wav files from the DAT transfer have been archived, and are available upon request.
Big thanks to Dave Flaschner for letting me borrow the master DATs!

Disc 1 - [76:00]
Set I
01 - [06:50] - My Friend My Friend
02 - [02:26] - Poor Heart
03 - [12:07] - Run Like an Antelope
04 - [06:01] - Loving Cup
05 - [03:53] - Sparkle
06 - [09:12] - It's Ice
07 - [08:10] - If I Could
08 - [11:26] - Maze
09 - [02:51] - Strange Design
10 - [08:37] - Free
11 - [04:28] - Cavern

Disc 2 - [72:42]
Set II
01 - [04:41] - Timber Ho ->
02 - [17:39] - David Bowie ->
03 - [02:39] - Johnny B. Goode ->
04 - [10:36] - David Bowie >
05 - [10:04] - AC/DC Bag
06 - [03:05] - The Lizards >
07 - [05:06] - Big Black Furry Creature from Mars
08 - [05:08] - A Day in the Life
09 - [13:43] - Possum

Disc 3 - [27:02]
Set II continued
01 - [11:05] - The Squirming Coil
02 - [02:29] - encore break
03 - [10:22] - Simple
04 - [01:44] - Amazing Grace
05 - [01:23] - outro

show notes:
Lizards was aborted after Trey lost track of the lyrics.
Fish teased him about needing a Teleprompter, and Trey started up BBFCFM.

--------------------------------------------------------------------------------------------------

SHNtool output:

    length     expanded size   cdr  WAVE problems filename
     6:49.50       72265244    ---   --   ---xx   ph1995-07-03d1t01.flac
     2:25.52       25700348    ---   --   ---xx   ph1995-07-03d1t02.flac
    12:06.72      128235788    ---   --   ---xx   ph1995-07-03d1t03.flac
     6:00.42       63602828    ---   --   ---xx   ph1995-07-03d1t04.flac
     3:52.54       41051852    ---   --   ---xx   ph1995-07-03d1t05.flac
     9:11.57       97330508    ---   --   ---xx   ph1995-07-03d1t06.flac
     8:10.25       86494844    ---   --   ---xx   ph1995-07-03d1t07.flac
    11:25.61      120977516    ---   --   ---xx   ph1995-07-03d1t08.flac
     2:51.08       30183260    ---   --   ---xx   ph1995-07-03d1t09.flac
     8:37.17       91238828    ---   --   ---xx   ph1995-07-03d1t10.flac
     4:28.12       47303468    ---   --   ---xx   ph1995-07-03d1t11.flac
     4:41.28       49634300    ---   --   ---xx   ph1995-07-03d2t01.flac
    17:39.31      186880556    ---   --   ---xx   ph1995-07-03d2t02.flac
     2:38.73       28042940    ---   --   ---xx   ph1995-07-03d2t03.flac
    10:35.67      112171628    ---   --   ---xx   ph1995-07-03d2t04.flac
    10:03.56      106500956    ---   --   ---xx   ph1995-07-03d2t05.flac
     3:04.61       32601116    ---   --   ---xx   ph1995-07-03d2t06.flac
     5:06.20       54025484    ---   --   ---xx   ph1995-07-03d2t07.flac
     5:08.05       54343004    ---   --   ---xx   ph1995-07-03d2t08.flac
    13:43.03      145184300    ---   --   ---xx   ph1995-07-03d2t09.flac
    11:05.24      117362492    ---   --   ---xx   ph1995-07-03d3t01.flac
     2:28.41       26203676    ---   --   ---xx   ph1995-07-03d3t02.flac
    10:21.68      109704380    ---   --   ---xx   ph1995-07-03d3t03.flac
     1:43.44       18272732    ---   --   ---xx   ph1995-07-03d3t04.flac
     1:23.04       14650652    ---   --   ---xx   ph1995-07-03d3t05.flac
   175:44.00     1859962700 B                     (totals for 25 files, 0.5168 overall compression ratio)

Show Checksums
all_ffp
ph1995-07-03d1t01.flac:e5d2fad4af7c2dcb8c71373054edbcc0
ph1995-07-03d1t02.flac:f5f6e46115b36801968fae73112848a9
ph1995-07-03d1t03.flac:adb550aea0d0e868b192814b74f5fa8c
ph1995-07-03d1t04.flac:edcaecc14085c5fa54df70692bd83a30
ph1995-07-03d1t05.flac:e44d05d90a2a318edb73e757c93f15c3
ph1995-07-03d1t06.flac:2539606e7153df0a65da4ee13db9f358
ph1995-07-03d1t07.flac:eb4d727103e52ef157eb8c7383b351d4
ph1995-07-03d1t08.flac:0271a74d5b25ebcc5f6d4fbb3f2f255b
ph1995-07-03d1t09.flac:ad9703ee63305a9b24b3e951b26498aa
ph1995-07-03d1t10.flac:502401def146adee9ab49f35928b69fa
ph1995-07-03d1t11.flac:2874e2b2c15208a3f3aa960fe2aec4f0
ph1995-07-03d2t01.flac:50c6e582b01cb03e89778303f29e9f2f
ph1995-07-03d2t02.flac:d9e31ea881f5c7de85e7e6ac32c97c9a
ph1995-07-03d2t03.flac:2c9e1f69367366426e60683e0d53ab9e
ph1995-07-03d2t04.flac:8e2e1c1f0fcc07e6198f05405a36584a
ph1995-07-03d2t05.flac:293125fc9fa9e968861d40a3a408ced3
ph1995-07-03d2t06.flac:be4a8dc07b5770ab0d5f27cd39dc6a96
ph1995-07-03d2t07.flac:66d2940eb7a4db4c16b2ceac069dd8c3
ph1995-07-03d2t08.flac:3d52038f0692ed9ceeb4e64d9c544d0a
ph1995-07-03d2t09.flac:4c8acab38b191791a1c9afd95b794e59
ph1995-07-03d3t01.flac:ba6d82a68082d8f0736fe491748901ee
ph1995-07-03d3t02.flac:728338cafc4df05329759b4ed4641542
ph1995-07-03d3t03.flac:f982903382b69a563389e681a984ee22
ph1995-07-03d3t04.flac:86d51cefcbee61834d5ba941d3aa636a
ph1995-07-03d3t05.flac:308cc4d4defd07023ee7f22cef2eaa1b
all_wav_md5
99254e7a6af51c83aac6d25aa1336d1e *ph1995-07-03d1t01.wav
ca9ffcc602682893584a06cb0ba3d1c7 *ph1995-07-03d1t02.wav
144c14cb446bd0e59ba9c0cb30fa5a8f *ph1995-07-03d1t03.wav
33567d067c7bf83ec480487a34059a18 *ph1995-07-03d1t04.wav
ba68c01a940149c21256f6673393a147 *ph1995-07-03d1t05.wav
11483c8de387e215b17aa2cfe27cd641 *ph1995-07-03d1t06.wav
aa3d62404f0973e5b607aab4e04ec407 *ph1995-07-03d1t07.wav
bd1604b38210c063c40614b2c2dab2f0 *ph1995-07-03d1t08.wav
05fb0ccd0f594d1056dd271d48ba786d *ph1995-07-03d1t09.wav
066781cf34328c020d78fca49682db95 *ph1995-07-03d1t10.wav
32b67aa24154fdb6e0e4cf23e26c5c66 *ph1995-07-03d1t11.wav
82565e07f5a38a515efc22908e3a4b37 *ph1995-07-03d2t01.wav
940f7742d7b80aebad11d1396aac5d04 *ph1995-07-03d2t02.wav
9e2d5916d7768efb1bd6baa2601a30d7 *ph1995-07-03d2t03.wav
37b23d87a3a90a3490ab377c68e4ae7b *ph1995-07-03d2t04.wav
da4b3658a059c08ba50d7b7117c2695b *ph1995-07-03d2t05.wav
4bf73d9b6f5d7c8d877c2215c8ec118a *ph1995-07-03d2t06.wav
439a37fb84eab030dc2b1daf0bfc6c21 *ph1995-07-03d2t07.wav
fc2c429528a826be76915944dc53a6de *ph1995-07-03d2t08.wav
a0efafba77fc0166bd1c23b5dc08c487 *ph1995-07-03d2t09.wav
6ce92c32931c1bb8e5ed1b34ed343243 *ph1995-07-03d3t01.wav
d12293c2547b8c1e62215ef5ae51c46c *ph1995-07-03d3t02.wav
3245d18aa42068f7db9753a80c6be90d *ph1995-07-03d3t03.wav
556f90fc466e5c7d3c4958cc96675df6 *ph1995-07-03d3t04.wav
0283bf63b06356fb1b4855491a0da156 *ph1995-07-03d3t05.wav

Comments
Add Comment
Other Sources (comments)
AKG 460 CARDS > TEAC >... (1) flac16; AKG... (0) flac16, 48kHz; AKG... (0)
Date User Comment
12/02/2007 kuvap Big improvement over the previous source.