Browse Collections Artists Sources   Search Dates

Add Show    List Management    Help


Grateful Dead 05/03/79
Charlotte Coliseum, Charlotte, NC
Comments Add Comment    Source Collectors    Add to Collection    Add to Want List    History
Source # 88851 Other Sources
Entered by Matt Vernon
Checksums flac-md5 , ffp
Disc Counts 2 / 3
Media Size
Date Circulated
Date Added
11/27/2007
11/27/2007
Source Summary flac16; Recording by Joani Walker: Sony ECM-250 -> Cassette Master (Sony TC-158/Maxell UDXL-II90) Transfer Info: Cassette Master (Nakamichi DR-1) -> Sound Devices 744T (24bit/96k) -> Samplitude Professional v9.12 -> FLAC/16 All Transfers and Mastering By Charlie Miller 
  Archive
Source Information - Download Text | Download Zip
Grateful Dead - May 3, 1979
Charlotte Coliseum - Charlotte, NC

Recording Info:
Sony ECM-250 -> Cassette Master (Sony TC-158/Maxell UDXL-II90)

Transfer Info:
Cassette Master (Nakamichi DR-1) -> Sound Devices 744T (24bit/96k) ->
Samplitude Professional v9.12 -> FLAC/16
(3 Discs Audio / 2 Discs FLAC)

All Transfers and Mastering By Charlie Miller
[email protected]
November 26, 2007

Patch Info:
Nakamichi 700 -> Cassette Master -> Dat -> CD (shnid=18870) supplies:
1st Playing In The Band (13:35 - 13:49)
2nd Playing In The Band (1:23 - 1:31)

Notes:
-- Set 2 is seamless
-- Recorded By Joani Walker
-- Sounds like a FOB recording
-- Thanks to Joani Walker and Paul Scotton for the tapes
-- Patch source recorded by Robert Wagner and Barry Glassberg
-- Patch source pitch adjusted to match Joani's tape

Set 1:
d1t01 - Tuning
d1t02 - The Promised Land
d1t03 - Brown Eyed Women
d1t04 - Me And My Uncle ->
d1t05 - Big River
d1t06 - Stagger Lee
d1t07 - Looks Like Rain
d1t08 - Row Jimmy
d1t09 - It's All Over Now
d1t10 - Deal

Set 2:
d2t01 - Tuning
d2t02 - Samson And Delilah
d2t03 - Tennessee Jed
d2t04 - Terrapin Station ->
d2t05 - Playing In The Band ->
d2t06 - Drums ->
d3t01 - Space ->
d3t02 - Black Peter ->
d3t03 - Not Fade Away ->
d3t04 - Playing In The Band

Encore:
d3t05 - U.S. Blues


SHNTOOL OUTPUT:
    length     expanded size   cdr  WAVE problems filename
     2:57.00       31222844    ---   --   -----   gd79-05-03d1t01.wav
     6:21.08       67227260    ---   --   -----   gd79-05-03d1t02.wav
     6:52.17       72716828    ---   --   -----   gd79-05-03d1t03.wav
     3:03.19       32325932    ---   --   -----   gd79-05-03d1t04.wav
     7:28.31       79100156    ---   --   -----   gd79-05-03d1t05.wav
     7:32.22       79784588    ---   --   -----   gd79-05-03d1t06.wav
     9:12.39       97464572    ---   --   -----   gd79-05-03d1t07.wav
    11:03.12      116981468    ---   --   -----   gd79-05-03d1t08.wav
     7:30.14       79412972    ---   --   -----   gd79-05-03d1t09.wav
     5:19.41       56368076    ---   --   -----   gd79-05-03d1t10.wav
     1:44.32       18420908    ---   --   -----   gd79-05-03d2t01.wav
     7:55.15       83825324    ---   --   -----   gd79-05-03d2t02.wav
     9:53.64      104755772    ---   --   -----   gd79-05-03d2t03.wav
    11:55.33      126203660    ---   --   -----   gd79-05-03d2t04.wav
    18:11.18      192494780    ---   --   -----   gd79-05-03d2t05.wav
    12:32.63      132801020    ---   --   -----   gd79-05-03d2t06.wav
     2:17.40       24260924    ---   --   -----   gd79-05-03d3t01.wav
     9:50.64      104226572    ---   --   -----   gd79-05-03d3t02.wav
    10:23.51      110017196    ---   --   -----   gd79-05-03d3t03.wav
     7:06.20       75193484    ---   --   -----   gd79-05-03d3t04.wav
     5:28.08       57878060    ---   --   -----   gd79-05-03d3t05.wav
   164:39.11     1742682396 B                     (totals for 21 files)
Show Checksums
flac-md5
eb552dc914e1941338dddc33f745d758 *gd79-05-03d1t01.flac
e2ebfe5ba4b9d998e407c693f65415aa *gd79-05-03d1t02.flac
03c5e2437dd42c43ca4fea140b5a6d87 *gd79-05-03d1t03.flac
f13f9f209e9453886c890c8c882c823f *gd79-05-03d1t04.flac
d4be59693e3ee0e2002adb58d9df2786 *gd79-05-03d1t05.flac
fa35f78a2b63e69f8141c98bea2a1cae *gd79-05-03d1t06.flac
f4576995d9e9ac6d0c8f618a5ffc5efe *gd79-05-03d1t07.flac
0a9947507641592c0b17dd31cdd30a4b *gd79-05-03d1t08.flac
2d34d691d329a3ea42c2e54c96296090 *gd79-05-03d1t09.flac
8cda121413d2d6f9bdaa254db6ff26f7 *gd79-05-03d1t10.flac
f55ffe93356f3a511644821d20486866 *gd79-05-03d2t01.flac
33e8bcbdc9be3d49836579b84e182a9e *gd79-05-03d2t02.flac
89a2606465a57dce768b3308d4f36dba *gd79-05-03d2t03.flac
305e0084e4d78e31080e62db9cda1fd1 *gd79-05-03d2t04.flac
ad8dc2947ead771629662ca2d399aa1f *gd79-05-03d2t05.flac
04fadd8594dc0c09a68e510d5a80cbbc *gd79-05-03d2t06.flac
a0a9fde532f40431452f5f69f4e98097 *gd79-05-03d3t01.flac
d0a00d4d5a0bcc1f74e9b4d4b4b2b024 *gd79-05-03d3t02.flac
ecedae644cd6f7518e556a3dc3305668 *gd79-05-03d3t03.flac
4768a9f3ba83d1f7537365646cb8a61f *gd79-05-03d3t04.flac
7eb953e100831d4a59c9f00b0e928869 *gd79-05-03d3t05.flac
ffp
gd79-05-03d1t01.flac:d5e6ad6c343097649703e4b0d55d098c
gd79-05-03d1t02.flac:f57f8548dd3b3054c2f73d8f8aa21ef0
gd79-05-03d1t03.flac:139cd200fe128c6fe83f06c0a1151997
gd79-05-03d1t04.flac:1b45453e9fe727d46bcd247fe3985803
gd79-05-03d1t05.flac:8401463782f8917ebd6ca676d1864ccd
gd79-05-03d1t06.flac:6d9f2f47959167676daefedbed46d017
gd79-05-03d1t07.flac:a1de6d26026a390c5426b2cc921f920f
gd79-05-03d1t08.flac:d125657ac013c4fb7c637c570ab4438a
gd79-05-03d1t09.flac:056744b6edddbffed32386835ff3548c
gd79-05-03d1t10.flac:501d91ea74a8c51bc43e43cd3276e72f
gd79-05-03d2t01.flac:662d99fbdc8dcc49b6e735abc9cf2bb0
gd79-05-03d2t02.flac:0ef277ba3f804978862f762a9a9f8c0f
gd79-05-03d2t03.flac:3a634f7636113971affe10705e118134
gd79-05-03d2t04.flac:0a153c502b04aaddb4810fbd8f6204f5
gd79-05-03d2t05.flac:e4093cd8cd0fa66cd014f0a7c9eb0a54
gd79-05-03d2t06.flac:0e72a3ab1ac6904584857668c20dd7f7
gd79-05-03d3t01.flac:82e22f9a564e53af41dc51413f37ca79
gd79-05-03d3t02.flac:773b140c5490ae7c73dbfb306754e7dd
gd79-05-03d3t03.flac:603beb6f8ca1a61de9b8def86e0a763d
gd79-05-03d3t04.flac:febd4f11f7835f3c0edd899d9227b45f
gd79-05-03d3t05.flac:b5ad748d19d8773edb3b93dc492f5209

Comments
Add Comment
Other Sources (comments)
Recording by Barry... (1) flac16; Recording by... (0)
Date User Comment