Browse Collections Artists Sources   Search Dates

Add Show    List Management    Help


Grateful Dead 04/28/80
Boutwell Auditorium, Birmingham, AL
Comments Add Comment    Source Collectors    Add to Collection    Add to Want List    History
Source # 88858 Other Sources
Entered by Matt Vernon
Checksums flac-md5 , ffp
Disc Counts 2 / 2
Media Size
Date Circulated
Date Added
11/28/2007
11/28/2007
Source Summary flac16 Recording by Barry Glassberg: MOTB Release: 0040 16/44.1 Source: Master Audience Recording [1st Row Loge, DFC] Media: MAC = Maxell UD XL II C90 Lineage: 2 x Nakamichi CM-700 [15 dB Attenuation Pad] > Sony TC-D5M > MAC Transfer: MAC > Nakamichi DR-1 > Benchmark ADC-1 > AES > Sound Devices 722 > WAV [24/96] Taped by: B. Glassberg Transfer by: A. Egert Mastering by: D. McCabe 
  Archive
Source Information - Download Text | Download Zip
MOTB Release: 0040 16/44.1
Release Date: 2007-11-28
Band: Grateful Dead
Date: 1980-04-28 (Monday)
Venue: Boutwell Auditorium
Location:  Birmingham, AL
Source: Master Audience Recording [1st Row Loge, DFC]
Media: MAC = Maxell UD XL II C90
Lineage: 2 x Nakamichi CM-700 [15 dB Attenuation Pad] > Sony TC-D5M > MAC
Transfer: MAC > Nakamichi DR-1 > Benchmark ADC-1 > AES > Sound Devices 722 > WAV [24/96]
Taped by: B. Glassberg
Transfer by: A. Egert
Mastering by: D. McCabe

Set 1
d1t01 - Alabama Getaway >
d1t02 - The Promised Land
d1t03 - They Love Each Other
d1t04 - El Paso
d1t05 - Althea
d1t06 - Looks Like Rain
d1t07 - Tennessee Jed
d1t08 - Far From Me
d1t09 - Feel Like A Stranger
d1t10 - Deal

Set 2
d2t01 - China Cat Sunflower >
d2t02 - I Know You Rider
d2t03 - Samson And Delilah
d2t04 - He's Gone >
d2t05 - The Other One >
d2t06 - Brent with Drums >
d2t07 - Drums >
d2t08 - Space >
d2t09 - Black Peter >
d2t10 - Sugar Magnolia

Encore
d2t11 - Goin' Down The Road Feeling Bad

Mastering Notes
-- Software - Bias Peak: Nomad PEQ-2A, Nomad LM-25, Ozone Izotope
-- Dither & SRC done in Audiofile Engineering Sample Manager using Izotope +MBIT
-- d2t02 - PA glitch at 3:05 removed in "I Know You Rider".
-- d2t0{2,3} - Glitch after "I Know You Rider" crossfaded into "Samson And Delilah".
-- d2t0{3,4} - Tape flip after "Samson And Delilah" crossfaded into "He's Gone".
-- d2t07 - Glitch in "Drums" crossfaded.

Notes
-- d2t05 - Brace yourself...


FLAC FINGERPRINTS:
gd1980-04-28.motb.0040.d1t01.flac:afa6df3c1f66a4e2ee583153353697f1
gd1980-04-28.motb.0040.d1t02.flac:5a73e855357b8b9cbccf0d720bb49125
gd1980-04-28.motb.0040.d1t03.flac:971af16c03bcb1f7fe0d4393eef1be01
gd1980-04-28.motb.0040.d1t04.flac:b09dc88a5cb27c18eea7d2e30401f831
gd1980-04-28.motb.0040.d1t05.flac:f43ec7709092a904671597dfc9b7e5b1
gd1980-04-28.motb.0040.d1t06.flac:290b96e9a6379e93dc2c7ab2efa58909
gd1980-04-28.motb.0040.d1t07.flac:7afaa7dfa09858ee5b7cfb4f0755077d
gd1980-04-28.motb.0040.d1t08.flac:eb89d947c2108510673c9234b0bfc29a
gd1980-04-28.motb.0040.d1t09.flac:efde1a5ba1be5d488d224f6c2b8430e0
gd1980-04-28.motb.0040.d1t10.flac:79b1196664c0995fd4556efdfc7ad3e4
gd1980-04-28.motb.0040.d2t01.flac:34f8139a19516dda649310267627b74e
gd1980-04-28.motb.0040.d2t02.flac:5dacb352851f7a19c48047888b9fca86
gd1980-04-28.motb.0040.d2t03.flac:39518bec1ec3ed56b6e3f7a8dab9fa9f
gd1980-04-28.motb.0040.d2t04.flac:14a77a6f18c0df96ada4a7b62834305b
gd1980-04-28.motb.0040.d2t05.flac:98785085d4408764b9890cdb293fa4a0
gd1980-04-28.motb.0040.d2t06.flac:106d1afd3c7b962a8e083f5558436be7
gd1980-04-28.motb.0040.d2t07.flac:c5f4041f7c0cf1476c858ab117002347
gd1980-04-28.motb.0040.d2t08.flac:e166d68ed0055b086ebba2a5a10690a6
gd1980-04-28.motb.0040.d2t09.flac:5029cf4078a3934ac4700646af251136
gd1980-04-28.motb.0040.d2t10.flac:37e1e857e9913309d55f6ba57414e9b6
gd1980-04-28.motb.0040.d2t11.flac:9eb4791694ed80cf76b6ee5b88d67bbf

MD5 CHECKSUMS:
50bed37c1f4e0bc386feaf53275943f6 *gd1980-04-28.motb.0040.d1t01.flac
4528cdfc5aedc7aa9577d772ddf19e2b *gd1980-04-28.motb.0040.d1t02.flac
ecc05f6a2035359b9f048a16f3018633 *gd1980-04-28.motb.0040.d1t03.flac
75c77807f8a299abf84b54aa747ff2ae *gd1980-04-28.motb.0040.d1t04.flac
bd2238cb0050697a5850c1cd7958e1c9 *gd1980-04-28.motb.0040.d1t05.flac
9b9a1a16ab220b2019e9ab347fe39e53 *gd1980-04-28.motb.0040.d1t06.flac
4bf3ef3fa4ba9a9f2a5acf593ab5037d *gd1980-04-28.motb.0040.d1t07.flac
24a7e2999d4e842a0f50cd3ba05b5541 *gd1980-04-28.motb.0040.d1t08.flac
068ae20cc219877fa2ba3cc51056475e *gd1980-04-28.motb.0040.d1t09.flac
8df9e2c34e5b95bf76d51e833302d248 *gd1980-04-28.motb.0040.d1t10.flac
c9d1280449d2efbeca3b16c7a869fbc6 *gd1980-04-28.motb.0040.d2t01.flac
b86794cfbf84dc9e34185e6016a35ea6 *gd1980-04-28.motb.0040.d2t02.flac
6c0acf765c2533b16b1fa4b92d2c8121 *gd1980-04-28.motb.0040.d2t03.flac
dae9934a9ae931e1abf2f210d6df362b *gd1980-04-28.motb.0040.d2t04.flac
b388870ee7f1c5bf8ceb4369f666a030 *gd1980-04-28.motb.0040.d2t05.flac
8b17d7464c51b29255a9cc759f7ba634 *gd1980-04-28.motb.0040.d2t06.flac
f95f29d7c293efc6a91e53b03f33e078 *gd1980-04-28.motb.0040.d2t07.flac
26352ed8cceecb2f3e5a2332c760ec91 *gd1980-04-28.motb.0040.d2t08.flac
5e747ac32687a12a487ad4da2fd8beeb *gd1980-04-28.motb.0040.d2t09.flac
2c11e8b8486f6b71ce92c4521941839e *gd1980-04-28.motb.0040.d2t10.flac
e6e09ae4040978c7d4b18e2a01de1c34 *gd1980-04-28.motb.0040.d2t11.flac

SHNTOOL OUTPUT:
    length     expanded size   cdr  WAVE problems filename
     4:39.64       49366172    ---   --   ---xx   gd1980-04-28.motb.0040.d1t01.flac
     5:46.73       61206140    ---   --   ---xx   gd1980-04-28.motb.0040.d1t02.flac
     7:46.15       82237724    ---   --   ---xx   gd1980-04-28.motb.0040.d1t03.flac
     5:06.48       54091340    ---   --   ---xx   gd1980-04-28.motb.0040.d1t04.flac
     8:22.41       88649276    ---   --   ---xx   gd1980-04-28.motb.0040.d1t05.flac
     7:41.19       81365132    ---   --   ---xx   gd1980-04-28.motb.0040.d1t06.flac
    10:09.60      107568764    ---   --   ---xx   gd1980-04-28.motb.0040.d1t07.flac
     4:00.07       42352508    ---   --   ---xx   gd1980-04-28.motb.0040.d1t08.flac
     7:30.51       79499996    ---   --   ---xx   gd1980-04-28.motb.0040.d1t09.flac
     4:52.00       51508844    ---   --   ---xx   gd1980-04-28.motb.0040.d1t10.flac
     6:17.52       66625148    ---   --   ---xx   gd1980-04-28.motb.0040.d2t01.flac
     6:16.17       66366428    ---   --   ---xx   gd1980-04-28.motb.0040.d2t02.flac
     7:09.01       75677996    ---   --   ---xx   gd1980-04-28.motb.0040.d2t03.flac
    12:18.60      130324364    ---   --   ---xx   gd1980-04-28.motb.0040.d2t04.flac
     9:16.71       98245436    ---   --   ---xx   gd1980-04-28.motb.0040.d2t05.flac
     1:44.16       18383276    ---   --   ---xx   gd1980-04-28.motb.0040.d2t06.flac
     5:48.66       61542476    ---   --   ---xx   gd1980-04-28.motb.0040.d2t07.flac
     3:18.35       35009564    ---   --   ---xx   gd1980-04-28.motb.0040.d2t08.flac
     9:32.59      101039612    ---   --   ---xx   gd1980-04-28.motb.0040.d2t09.flac
     9:28.39      100286972    ---   --   ---xx   gd1980-04-28.motb.0040.d2t10.flac
     5:26.55       57635804    ---   --   ---xx   gd1980-04-28.motb.0040.d2t11.flac
   142:34.24     1508982972 B                     (totals for 21 files, 0.6231 overall compression ratio)

Show Checksums
flac-md5
50bed37c1f4e0bc386feaf53275943f6 *gd1980-04-28.motb.0040.d1t01.flac
4528cdfc5aedc7aa9577d772ddf19e2b *gd1980-04-28.motb.0040.d1t02.flac
ecc05f6a2035359b9f048a16f3018633 *gd1980-04-28.motb.0040.d1t03.flac
75c77807f8a299abf84b54aa747ff2ae *gd1980-04-28.motb.0040.d1t04.flac
bd2238cb0050697a5850c1cd7958e1c9 *gd1980-04-28.motb.0040.d1t05.flac
9b9a1a16ab220b2019e9ab347fe39e53 *gd1980-04-28.motb.0040.d1t06.flac
4bf3ef3fa4ba9a9f2a5acf593ab5037d *gd1980-04-28.motb.0040.d1t07.flac
24a7e2999d4e842a0f50cd3ba05b5541 *gd1980-04-28.motb.0040.d1t08.flac
068ae20cc219877fa2ba3cc51056475e *gd1980-04-28.motb.0040.d1t09.flac
8df9e2c34e5b95bf76d51e833302d248 *gd1980-04-28.motb.0040.d1t10.flac
c9d1280449d2efbeca3b16c7a869fbc6 *gd1980-04-28.motb.0040.d2t01.flac
b86794cfbf84dc9e34185e6016a35ea6 *gd1980-04-28.motb.0040.d2t02.flac
6c0acf765c2533b16b1fa4b92d2c8121 *gd1980-04-28.motb.0040.d2t03.flac
dae9934a9ae931e1abf2f210d6df362b *gd1980-04-28.motb.0040.d2t04.flac
b388870ee7f1c5bf8ceb4369f666a030 *gd1980-04-28.motb.0040.d2t05.flac
8b17d7464c51b29255a9cc759f7ba634 *gd1980-04-28.motb.0040.d2t06.flac
f95f29d7c293efc6a91e53b03f33e078 *gd1980-04-28.motb.0040.d2t07.flac
26352ed8cceecb2f3e5a2332c760ec91 *gd1980-04-28.motb.0040.d2t08.flac
5e747ac32687a12a487ad4da2fd8beeb *gd1980-04-28.motb.0040.d2t09.flac
2c11e8b8486f6b71ce92c4521941839e *gd1980-04-28.motb.0040.d2t10.flac
e6e09ae4040978c7d4b18e2a01de1c34 *gd1980-04-28.motb.0040.d2t11.flac
ffp
gd1980-04-28.motb.0040.d1t01.flac:afa6df3c1f66a4e2ee583153353697f1
gd1980-04-28.motb.0040.d1t02.flac:5a73e855357b8b9cbccf0d720bb49125
gd1980-04-28.motb.0040.d1t03.flac:971af16c03bcb1f7fe0d4393eef1be01
gd1980-04-28.motb.0040.d1t04.flac:b09dc88a5cb27c18eea7d2e30401f831
gd1980-04-28.motb.0040.d1t05.flac:f43ec7709092a904671597dfc9b7e5b1
gd1980-04-28.motb.0040.d1t06.flac:290b96e9a6379e93dc2c7ab2efa58909
gd1980-04-28.motb.0040.d1t07.flac:7afaa7dfa09858ee5b7cfb4f0755077d
gd1980-04-28.motb.0040.d1t08.flac:eb89d947c2108510673c9234b0bfc29a
gd1980-04-28.motb.0040.d1t09.flac:efde1a5ba1be5d488d224f6c2b8430e0
gd1980-04-28.motb.0040.d1t10.flac:79b1196664c0995fd4556efdfc7ad3e4
gd1980-04-28.motb.0040.d2t01.flac:34f8139a19516dda649310267627b74e
gd1980-04-28.motb.0040.d2t02.flac:5dacb352851f7a19c48047888b9fca86
gd1980-04-28.motb.0040.d2t03.flac:39518bec1ec3ed56b6e3f7a8dab9fa9f
gd1980-04-28.motb.0040.d2t04.flac:14a77a6f18c0df96ada4a7b62834305b
gd1980-04-28.motb.0040.d2t05.flac:98785085d4408764b9890cdb293fa4a0
gd1980-04-28.motb.0040.d2t06.flac:106d1afd3c7b962a8e083f5558436be7
gd1980-04-28.motb.0040.d2t07.flac:c5f4041f7c0cf1476c858ab117002347
gd1980-04-28.motb.0040.d2t08.flac:e166d68ed0055b086ebba2a5a10690a6
gd1980-04-28.motb.0040.d2t09.flac:5029cf4078a3934ac4700646af251136
gd1980-04-28.motb.0040.d2t10.flac:37e1e857e9913309d55f6ba57414e9b6
gd1980-04-28.motb.0040.d2t11.flac:9eb4791694ed80cf76b6ee5b88d67bbf

Comments
Add Comment
Other Sources (comments)
Recording by Barry... (0) Recording by Barry... (0) flac24 Recording by... (0) flac16; (FOB) Sony... (0) flac16; Recorded By... (0)
Date User Comment
11/29/2007 charlie miller Recorded by Barry Glassberg and Robert Wagner.