Browse Collections Artists Sources   Search Dates

Add Show    List Management    Help


Grateful Dead 10/10/94
USAir Arena, Landover, MD
Comments Add Comment    Source Collectors    Add to Collection    Add to Want List    History
Source # 88861 Other Sources
Entered by dr.unclear
Checksums ffp , flac-md5
Disc Counts 2 / 3
Media Size
Date Circulated
Date Added
11/28/2007
11/28/2007
Source Summary flac16; AKG 460B/ck61 > custom pre-amp > Teac DA-P20 (@ 48 kHz); Tascam DA-20MKII > Tascam HD-P2 > WaveLab 5.01b (de-emphasis, fades, resample to 44.1 kHz) > CD Wave v1.96.1 > FLAC v1.2.1 (Level 8); Taped by Tom McMinn; Transferred by Jason Sobel 
  Archive
Source Information - Download Text | Download Zip
Grateful Dead
October 10, 1994
USAir Arena
Landover, MD

source:
AKG 460B/ck61 > custom pre-amp > Teac DA-P20 (@ 48 kHz)

transfer:
Tascam DA-20MKII > Tascam HD-P2 > CF card > usb 2.0 > pc > WaveLab 5.01b (de-emphasis, fades, resample to 44.1 kHz) > CD Wave v1.96.1 > FLAC v1.2.1 (Level 8)

FLAC tags added with metaflac v1.2.1

recorded by Tom McMinn
transferred by Jason Sobel ([email protected])
seeded November 28, 2007

notes:
The original DAT recording was made with pre-emphasis.
The Waves Q10 Paragraphic EQ v5.0 plug-in was used to de-emphasize the recording.
The original 48 kHz .wav files from the DAT transfer have been archived, and are available upon request.
Big thanks to Dave Flaschner for letting me borrow his DAT tape!

Disc 1 - [53:44]
Set I
01 - [01:33] - intro
02 - [08:18] - Iko Iko
03 - [05:48] - Walkin' Blues
04 - [08:53] - Althea
05 - [10:29] - Desolation Row *
06 - [08:42] - Loose Lucy
07 - [10:00] - Eternity

Disc 2 - [60:41]
Set II
01 - [03:08] - intro
02 - [03:48] - Help On The Way >
03 - [07:24] - Slipknot! >
04 - [15:12] - Franklin's Tower
05 - [12:09] - Estimated Prophet >
06 - [18:60] - Terrapin Station >

Disc 3 - [55:04]
Set II continued
01 - [11:02] - Drums >
02 - [13:02] - Space >
03 - [07:14] - All Along The Watchtower >
04 - [10:28] - Stella Blue >
05 - [09:59] - Not Fade Away
06 - [03:19] - I Fought The Law

* Bob on acoustic guitar

-------------------------------------------------------------------------------------------

SHNtool output:

    length     expanded size   cdr  WAVE problems filename
     1:32.69       16391132    ---   --   ---xx   gd1994-10-10d1t01.flac
     8:18.35       87929564    ---   --   ---xx   gd1994-10-10d1t02.flac
     5:48.04       61396652    ---   --   ---xx   gd1994-10-10d1t03.flac
     8:53.02       94025948    ---   --   ---xx   gd1994-10-10d1t04.flac
    10:29.28      111021500    ---   --   ---xx   gd1994-10-10d1t05.flac
     8:42.04       92090252    ---   --   ---xx   gd1994-10-10d1t06.flac
    10:00.08      105858860    ---   --   ---xx   gd1994-10-10d1t07.flac
     3:08.01       33165596    ---   --   ---xx   gd1994-10-10d2t01.flac
     3:47.43       40143980    ---   --   ---xx   gd1994-10-10d2t02.flac
     7:24.16       78359276    ---   --   ---xx   gd1994-10-10d2t03.flac
    15:11.71      160867436    ---   --   ---xx   gd1994-10-10d2t04.flac
    12:09.02      128600348    ---   --   ---xx   gd1994-10-10d2t05.flac
    18:59.59      201058412    ---   --   ---xx   gd1994-10-10d2t06.flac
    11:02.16      116814476    ---   --   ---xx   gd1994-10-10d3t01.flac
    13:02.30      138015404    ---   --   ---xx   gd1994-10-10d3t02.flac
     7:14.11       76583516    ---   --   ---xx   gd1994-10-10d3t03.flac
    10:27.38      110692220    ---   --   ---xx   gd1994-10-10d3t04.flac
     9:59.30      105734204    ---   --   ---xx   gd1994-10-10d3t05.flac
     3:18.58       35063660    ---   --   ---xx   gd1994-10-10d3t06.flac
   169:29.00     1793812436 B                     (totals for 19 files, 0.5191 overall compression ratio)

Show Checksums
ffp
gd1994-10-10d1t01.flac:a2ae858d11637310592e25cbf3ab57fd
gd1994-10-10d1t02.flac:1889d4e8dd12f646c1e8ce6465066622
gd1994-10-10d1t03.flac:7f3d4d4ec01175275df2dab553c54512
gd1994-10-10d1t04.flac:f88c9efc667fc34d82953609fb38eb30
gd1994-10-10d1t05.flac:bffdd93c86b17b32d10a59e3156ab447
gd1994-10-10d1t06.flac:a2981e1282c00f117ca4c6c9c3175e32
gd1994-10-10d1t07.flac:ded03bf69e2e6a46b1007f59165ae1e1
gd1994-10-10d2t01.flac:03b31226f085a43dca035e7db480a1cd
gd1994-10-10d2t02.flac:7e3188028385c3782c7c87de19ca2738
gd1994-10-10d2t03.flac:b3c2294aeb200562a6dd4a3af27aebae
gd1994-10-10d2t04.flac:d2a9dac1b9308636f83e1069b2afb6df
gd1994-10-10d2t05.flac:7e2304cf4e46b30c1bdb29f815ec2296
gd1994-10-10d2t06.flac:45a5b6187b2feac2367a99694a203f92
gd1994-10-10d3t01.flac:a758c3bac1b32f6ab264fd37f375b8e3
gd1994-10-10d3t02.flac:ada7396a36f745b7b632e8115d6d309a
gd1994-10-10d3t03.flac:637bdeb0d26d2cd1d381c6f947d7e324
gd1994-10-10d3t04.flac:320b56393759add8679ea54586bea33a
gd1994-10-10d3t05.flac:2a6f8261d6b5c708c76415c4defc5086
gd1994-10-10d3t06.flac:01ea141df2f31e50a7fa8215c89d1457
flac-md5
c2bd701ce9f4ebaf6290dad747528a36 *gd1994-10-10d1t01.flac
d6d53c9253695f9fa5f62d702b3e353e *gd1994-10-10d1t02.flac
3df9243fbdce118ae59b45f000db11ce *gd1994-10-10d1t03.flac
51c50beac81f2008cb9c301894b03e5b *gd1994-10-10d1t04.flac
8fb74f627c1a2789cfb2966efd070894 *gd1994-10-10d1t05.flac
9373a3e65caf31c245891a5e93f984a5 *gd1994-10-10d1t06.flac
e1bdf73ff2d870899337c5cdd1da5b42 *gd1994-10-10d1t07.flac
efd91da7a281afc4c633aec7ec494d91 *gd1994-10-10d2t01.flac
98d375c5b000d6ad33ba26175d666ff9 *gd1994-10-10d2t02.flac
9f5d3e11f0480179dacc0c2e34f153f0 *gd1994-10-10d2t03.flac
df443a1468a222a56726494e359750bc *gd1994-10-10d2t04.flac
aafeedc9039bc6f5b2946c00907b3c1a *gd1994-10-10d2t05.flac
8e6773a65d1f62cb49bf0f33498f1308 *gd1994-10-10d2t06.flac
0e20a25a95ad197248945f17ce638872 *gd1994-10-10d3t01.flac
27324a7519303cb39ebb1819b653e97e *gd1994-10-10d3t02.flac
58752c4451eacea55814c5aa5a95bee0 *gd1994-10-10d3t03.flac
2b31a1d7cca511a631f31a2022101c3e *gd1994-10-10d3t04.flac
472f3550d1b23009626ebac5452f0888 *gd1994-10-10d3t05.flac
6211ddf45faab3dcd2d720079d0f5152 *gd1994-10-10d3t06.flac

Comments
Add Comment
Other Sources (comments)
Schoeps MK4; AUD> DAT> CDR;... (0) SBD>DATx2>C>HiFi... (0) Source: AKG 568's > DAT >... (0) flac16; Recording... (1) flac16; Source:... (0) flac16/48kHz;... (1) (OTS)... (0) flac16; Source:... (0) flac16; record:... (0)
Date User Comment