Browse Collections Artists Sources   Search Dates

Add Show    List Management    Help


Grateful Dead 05/02/80
Hampton Coliseum, Hampton, VA
Comments Add Comment    Source Collectors    Add to Collection    Add to Want List    History
Source # 88873 Other Sources
Entered by Matt Vernon
Checksums ffp , flac-md5
Disc Counts 2 / 2
Media Size
Date Circulated
Date Added
11/29/2007
11/29/2007
Source Summary flac16; Recording by Joani Walker: Sony ECM-250 -> Cassette Master (Sony TC-158/Maxell UDXL-II90) Transfer Info: Cassette Master (Nakamichi DR-1) -> Sound Devices 744T (24bit/96k) -> Samplitude Professional v9.12 -> FLAC/16 All Transfers and Mastering By Charlie Miller 
  Archive
Source Information - Download Text | Download Zip
Grateful Dead - May 2, 1980
Hampton Coliseum - Hampton, VA

Recording Info:
Sony ECM-250 -> Cassette Master (Sony TC-158/Maxell UDXL-II90)

Transfer Info:
Cassette Master (Nakamichi DR-1) -> Sound Devices 744T (24bit/96k) ->
Samplitude Professional v9.12 -> FLAC/16
(2 Discs Audio / 2 Discs FLAC)

All Transfers and Mastering By Charlie Miller
[email protected]
November 28, 2007

Patch Info:
AKG 1000E -> Cassette Master -> Dat -> CD (shnid=3202) supplies:
Drums (9:21 - 9:35)

Notes:
-- Set 2 is seamless
-- Recorded By Joani Walker
-- Thanks to Joani Walker and Paul Scotton for the tapes
-- Patch source recorded by Jim Wise
-- Patch source pitch adjusted to match Joani's tape

Set 1:
d1t01 - Tuning
d1t02 - New Minglewood Blues
d1t03 - Loser
d1t04 - Mama Tried ->
d1t05 - Mexicali Blues
d1t06 - Friend Of The Devil
d1t07 - Far From Me
d1t08 - Looks Like Rain
d1t09 - Althea
d1t10 - The Music Never Stopped

Set 2:
d2t01 - Alabama Getaway ->
d2t02 - Feel Like A Stranger ->
d2t03 - Eyes Of The World ->
d2t04 - Drums ->
d2t05 - Space ->
d2t06 - Not Fade Away ->
d2t07 - Stella Blue ->
d2t08 - I Need A Miracle ->
d2t09 - Bertha ->
d2t10 - Good Lovin'

Encore:
d2t11 - Johnny B. Goode


SHNTOOL OUTPUT:
    length     expanded size   cdr  WAVE problems filename
     2:31.47       26746988    ---   --   -----   gd80-05-02d1t01.wav
     8:08.70       86247884    ---   --   -----   gd80-05-02d1t02.wav
     8:51.63       93816620    ---   --   -----   gd80-05-02d1t03.wav
     2:30.40       26554124    ---   --   -----   gd80-05-02d1t04.wav
     5:21.44       56727932    ---   --   -----   gd80-05-02d1t05.wav
     9:46.70      103535084    ---   --   -----   gd80-05-02d1t06.wav
     4:09.23       43977740    ---   --   -----   gd80-05-02d1t07.wav
     9:07.60       96631964    ---   --   -----   gd80-05-02d1t08.wav
     8:21.59       88515212    ---   --   -----   gd80-05-02d1t09.wav
     7:42.29       81565052    ---   --   -----   gd80-05-02d1t10.wav
     5:24.13       57184220    ---   --   -----   gd80-05-02d2t01.wav
     7:55.65       83942924    ---   --   -----   gd80-05-02d2t02.wav
     7:13.25       76440044    ---   --   -----   gd80-05-02d2t03.wav
     9:45.70      103358684    ---   --   -----   gd80-05-02d2t04.wav
     0:42.05        7420604    ---   --   -----   gd80-05-02d2t05.wav
     6:23.32       67636508    ---   --   -----   gd80-05-02d2t06.wav
     8:50.14       93524972    ---   --   -----   gd80-05-02d2t07.wav
     3:48.55       40348604    ---   --   -----   gd80-05-02d2t08.wav
     5:34.71       59084636    ---   --   -----   gd80-05-02d2t09.wav
     6:56.59       73521212    ---   --   -----   gd80-05-02d2t10.wav
     4:33.05       48169004    ---   --   -----   gd80-05-02d2t11.wav
   133:41.19     1414950012 B                     (totals for 21 files)
Show Checksums
ffp
gd80-05-02d1t01.flac:19310e8e76184a9b528a151ab3429297
gd80-05-02d1t02.flac:c415d5b0df020e478023bc4248a6d8be
gd80-05-02d1t03.flac:f629021764da12982c6d569336efdb02
gd80-05-02d1t04.flac:a2e0ed3b80f6156aa32a1648afce30e5
gd80-05-02d1t05.flac:6b7669974958907d7fa5fed749cff102
gd80-05-02d1t06.flac:5b8eceae9a022f652eb3ac0c0ec15ca1
gd80-05-02d1t07.flac:b2a61915bd6dd4653d1c895352c67ea1
gd80-05-02d1t08.flac:ff2dcb216f4cf21a5dbab08d6533791c
gd80-05-02d1t09.flac:e2f8434b8e88159e604971957e03b34b
gd80-05-02d1t10.flac:074fdae4ff6d77c5fd101eeaedb7e87e
gd80-05-02d2t01.flac:2a4071dd895dab26227ebdd5d172f55a
gd80-05-02d2t02.flac:6cca210fb9b6ad209e4a7375b22a48e2
gd80-05-02d2t03.flac:f59df74c5ce41c7b2e748799cb497dbc
gd80-05-02d2t04.flac:e2f16a1553148aca175bc6cbb29def0b
gd80-05-02d2t05.flac:ec943d2b70e83f1c3ea4bcd284945551
gd80-05-02d2t06.flac:c8f5787807b6e3828401c2a1491e6783
gd80-05-02d2t07.flac:c8847a8dd6c2fcc897ec1154022940cb
gd80-05-02d2t08.flac:f848fa7ccd159632f36022f62ef6862d
gd80-05-02d2t09.flac:3ecdd10202bb80c46615da8192a0a861
gd80-05-02d2t10.flac:787476cf7253ff455f3396abc283e87b
gd80-05-02d2t11.flac:62735d85f9448a8d1e3e2473455c2a35
flac-md5
1c3bf861a2576806451f81652f2df8aa *gd80-05-02d1t01.flac
589c167019562421969544b4eed7fca8 *gd80-05-02d1t02.flac
a08c26940e4f5e9f2c5b3b70f6946591 *gd80-05-02d1t03.flac
1aa9a72bb7067fc7336102a5cbccab91 *gd80-05-02d1t04.flac
034ff6f6c5243079578cb393067f5584 *gd80-05-02d1t05.flac
35c7cbe611dac0da69afa19df5aefb6e *gd80-05-02d1t06.flac
823ccd2ccdd58340e915895bf4a91b98 *gd80-05-02d1t07.flac
189f47eea7e99afd1c3ace42f4dbf5f9 *gd80-05-02d1t08.flac
1ded18eb7d55084f66e7db4b8f64f2a2 *gd80-05-02d1t09.flac
ca446b9bab8d9e293d5b370a35d922be *gd80-05-02d1t10.flac
5149f5c952d12ab6aee5e909ba5ba18d *gd80-05-02d2t01.flac
996f97dff3dde6a738de0bb3c01ed84f *gd80-05-02d2t02.flac
6124d8d954e6662598bc113fc4574e23 *gd80-05-02d2t03.flac
15232ecc8fd585f1c913ba1ff58a51f9 *gd80-05-02d2t04.flac
c8067e0ae3d617797ff277e576f40a37 *gd80-05-02d2t05.flac
6105cd9a75ad315cc02e8047174b9e76 *gd80-05-02d2t06.flac
ccd9140af0da1edefe0878d1eb28a964 *gd80-05-02d2t07.flac
3c911c40e8e2ac3a3c3873a8098d2a99 *gd80-05-02d2t08.flac
00cd3c83d2c2526e4409d8ec84bb0648 *gd80-05-02d2t09.flac
315f4fb437bfe46162653aa7b0016200 *gd80-05-02d2t10.flac
d778212cc06037e86f87307d8f58d73f *gd80-05-02d2t11.flac

Comments
Add Comment
Other Sources (comments)
Recordings by John Hance... (1) flac16; MAC = 2 x... (0) flac24; MAC = 2 x... (0) flac16; (FOB) Beyer... (1) flac24; (FOB) Beyer... (0) flac24; (FOB) Beyer... (0) flac24; Beyer... (0) flac16; Recorded By... (0)
Date User Comment