Browse Collections Artists Sources   Search Dates

Add Show    List Management    Help


Grateful Dead 04/28/80
Boutwell Auditorium, Birmingham, AL
Comments Add Comment    Source Collectors    Add to Collection    Add to Want List    History
Source # 88906 Other Sources
Entered by Matt Vernon
Checksums ffp , flac-md5
Disc Counts 5 / 0
Media Size
Date Circulated
Date Added
12/01/2007
12/01/2007
Source Summary flac24 Recording by Barry Glassberg: MOTB Release: 0040 24/96 Source: Master Audience Recording [1st Row Loge, DFC] Media: MAC = Maxell UD XL II C90 Lineage: 2 x Nakamichi CM-700 [15 dB Attenuation Pad] > Sony TC-D5M > MAC Transfer: MAC > Nakamichi DR-1 > Benchmark ADC-1 > AES > Sound Devices 722 > WAV [24/96] Taped by: B. Glassberg Transfer by: A. Egert Mastering by: D. McCabe 
  Archive
Source Information - Download Text | Download Zip
MOTB Release: 0040 24/96
Release Date: 2007-12-01
Band: Grateful Dead
Date: 1980-04-28 (Monday)
Venue: Boutwell Auditorium
Location:  Birmingham, AL
Source: Master Audience Recording [1st Row Loge, DFC]
Media: MAC = Maxell UD XL II C90
Lineage: 2 x Nakamichi CM-700 [15 dB Attenuation Pad] > Sony TC-D5M > MAC
Transfer: MAC > Nakamichi DR-1 > Benchmark ADC-1 > AES > Sound Devices 722 > WAV [24/96]
Taped by: B. Glassberg
Transfer by: A. Egert
Mastering by: D. McCabe

Set 1
s1t01 - Alabama Getaway >
s1t02 - The Promised Land
s1t03 - They Love Each Other
s1t04 - El Paso
s1t05 - Althea
s1t06 - Looks Like Rain
s1t07 - Tennessee Jed
s1t08 - Far From Me
s1t09 - Feel Like A Stranger
s1t10 - Deal

Set 2
s2t01 - China Cat Sunflower >
s2t02 - I Know You Rider
s2t03 - Samson And Delilah
s2t04 - He's Gone >
s2t05 - The Other One >
s2t06 - Brent with Drums >
s2t07 - Drums >
s2t08 - Space >
s2t09 - Black Peter >
s2t10 - Sugar Magnolia

Encore
sEt01 - Goin' Down The Road Feeling Bad

Mastering Notes
-- Software - Bias Peak: Nomad PEQ-2A, Nomad LM-25, Ozone Izotope
-- s2t02 - PA glitch at 3:05 removed in "I Know You Rider".
-- s2t0{2,3} - Glitch after "I Know You Rider" crossfaded into "Samson And Delilah".
-- s2t0{3,4} - Tape flip after "Samson And Delilah" crossfaded into "He's Gone".
-- s2t07 - Glitch in "Drums" crossfaded.

Notes
-- s2t05 - Brace yourself...


FLAC FINGERPRINTS:
gd1980-04-28.motb.0040.s1t01.flac:4b488650f82d9864586c2bf9a1ee96c9
gd1980-04-28.motb.0040.s1t02.flac:9cc1de859aaa5b99778c771a51340439
gd1980-04-28.motb.0040.s1t03.flac:10bb7cb9c9a9d449537e93087e426910
gd1980-04-28.motb.0040.s1t04.flac:97869236d02d7b94b9b94d11ef3e5a46
gd1980-04-28.motb.0040.s1t05.flac:d9931a7f85c9538a1e465e06d005f539
gd1980-04-28.motb.0040.s1t06.flac:f19185218534592e91432596eb4cb91d
gd1980-04-28.motb.0040.s1t07.flac:2176db419d2bc260e97e239e5740738b
gd1980-04-28.motb.0040.s1t08.flac:ceda7bc9b189330c33e4a4c782582ea4
gd1980-04-28.motb.0040.s1t09.flac:debc0637df810d0751b1979882a5bf83
gd1980-04-28.motb.0040.s1t10.flac:95d9271820f377e386629e77ecb49fc1
gd1980-04-28.motb.0040.s2t01.flac:64c2310912b20f25b83361cef5638f96
gd1980-04-28.motb.0040.s2t02.flac:c906dc460a7d784e225c0121c14d4c7f
gd1980-04-28.motb.0040.s2t03.flac:2f3eb76ae4b17e4e0da4bb0d0e1dd4e3
gd1980-04-28.motb.0040.s2t04.flac:fc437ada88820b94b478455d2903f8ec
gd1980-04-28.motb.0040.s2t05.flac:2f7efebc3e3c90cdc399f9f8201f51ef
gd1980-04-28.motb.0040.s2t06.flac:ba0d202ed1908eac6dc0da65b242be48
gd1980-04-28.motb.0040.s2t07.flac:e673995753b6a26f7eac2c9152e9b9af
gd1980-04-28.motb.0040.s2t08.flac:d418e29092c0ad5bf4eeaaf910a00d80
gd1980-04-28.motb.0040.s2t09.flac:eb3a5683ca81e89cd4afdabb8a9cc86c
gd1980-04-28.motb.0040.s2t10.flac:5e338610ca5d94b5d2afe81324a77df5
gd1980-04-28.motb.0040.sEt01.flac:a2b1638fcab8a4db52b8979dab5f9fc5

MD5 CHECKSUMS:
6d2f86f1084555947a3b716f76af7632 *gd1980-04-28.motb.0040.s1t01.flac
e5edfa798eca24de21299fe7ab37041e *gd1980-04-28.motb.0040.s1t02.flac
eaf3151213ce731aaa684e04a51c8a6e *gd1980-04-28.motb.0040.s1t03.flac
88f76bf81380dec722c371e723ffbbb0 *gd1980-04-28.motb.0040.s1t04.flac
311e345d97fce37bf00c01a285224f33 *gd1980-04-28.motb.0040.s1t05.flac
70756e96eb86917325969cddbcac93c1 *gd1980-04-28.motb.0040.s1t06.flac
7fab8f1d133987e15f334bab0a8c7ae8 *gd1980-04-28.motb.0040.s1t07.flac
97a3b1ed86767336aa59d79afa82a3be *gd1980-04-28.motb.0040.s1t08.flac
9a1d6267239028165c4503b13fa0dafb *gd1980-04-28.motb.0040.s1t09.flac
dd6aff5f65cdfb4887d69054fa77f7bf *gd1980-04-28.motb.0040.s1t10.flac
0296b53ce7127137224cc66d97af90cc *gd1980-04-28.motb.0040.s2t01.flac
f9266ae5ea782dc36c0ef18ff4b469ab *gd1980-04-28.motb.0040.s2t02.flac
90ec89a061f6d0e35832c55d33837c91 *gd1980-04-28.motb.0040.s2t03.flac
c76c4a0f6f8033d3e31a8c9beb76d121 *gd1980-04-28.motb.0040.s2t04.flac
2c669acf00bce4034896645e27c09f34 *gd1980-04-28.motb.0040.s2t05.flac
c421114334ce974fadc101ee1ea74eef *gd1980-04-28.motb.0040.s2t06.flac
b5f7ee2caaf4b78d68a452af6ba21be6 *gd1980-04-28.motb.0040.s2t07.flac
a46d551658e515551932945ef3517e66 *gd1980-04-28.motb.0040.s2t08.flac
34b346eca8aa6065ba139db5382bd6df *gd1980-04-28.motb.0040.s2t09.flac
fd6b005906d67ce6f964d0fbfafdd512 *gd1980-04-28.motb.0040.s2t10.flac
e6479c8e66f84fddb30f05a673050b9c *gd1980-04-28.motb.0040.sEt01.flac

SHNTOOL OUTPUT:
    length     expanded size   cdr  WAVE problems filename
     4:39.867     161203718    cxx   --   ---xx   gd1980-04-28.motb.0040.s1t01.flac
     5:46.984     199862810    cxx   --   ---xx   gd1980-04-28.motb.0040.s1t02.flac
     7:46.196     268528946    cxx   --   ---xx   gd1980-04-28.motb.0040.s1t03.flac
     5:06.652     176631446    cxx   --   ---xx   gd1980-04-28.motb.0040.s1t04.flac
     8:22.553     289470608    cxx   --   ---xx   gd1980-04-28.motb.0040.s1t05.flac
     7:41.259     265684982    cxx   --   ---xx   gd1980-04-28.motb.0040.s1t06.flac
    10:09.808     351249506    cxx   --   ---xx   gd1980-04-28.motb.0040.s1t07.flac
     4:00.107     138301886    cxx   --   ---xx   gd1980-04-28.motb.0040.s1t08.flac
     7:30.677     259590158    cxx   --   ---xx   gd1980-04-28.motb.0040.s1t09.flac
     4:52.012     168199070    cxx   --   ---xx   gd1980-04-28.motb.0040.s1t10.flac
     6:17.699     217554938    cxx   --   ---xx   gd1980-04-28.motb.0040.s2t01.flac
     6:16.237     216712412    cxx   --   ---xx   gd1980-04-28.motb.0040.s2t02.flac
     7:09.023     247117214    cxx   --   ---xx   gd1980-04-28.motb.0040.s2t03.flac
    12:18.804     425551034    cxx   --   ---xx   gd1980-04-28.motb.0040.s2t04.flac
     9:16.956     320806718    cxx   --   ---xx   gd1980-04-28.motb.0040.s2t05.flac
     1:44.215      60027956    cxx   --   ---xx   gd1980-04-28.motb.0040.s2t06.flac
     5:48.880     200954924    cxx   --   ---xx   gd1980-04-28.motb.0040.s2t07.flac
     3:18.485     114327542    cxx   --   ---xx   gd1980-04-28.motb.0040.s2t08.flac
     9:32.791     329927804    cxx   --   ---xx   gd1980-04-28.motb.0040.s2t09.flac
     9:28.520     327467564    cxx   --   ---xx   gd1980-04-28.motb.0040.s2t10.flac
     5:26.727     188194886    cxx   --   ---xx   gd1980-04-28.motb.0040.sEt01.flac
   142:34.453    4927366122 B                     (totals for 21 files, 0.6874 overall compression ratio)

Show Checksums
ffp
gd1980-04-28.motb.0040.s1t01.flac:4b488650f82d9864586c2bf9a1ee96c9
gd1980-04-28.motb.0040.s1t02.flac:9cc1de859aaa5b99778c771a51340439
gd1980-04-28.motb.0040.s1t03.flac:10bb7cb9c9a9d449537e93087e426910
gd1980-04-28.motb.0040.s1t04.flac:97869236d02d7b94b9b94d11ef3e5a46
gd1980-04-28.motb.0040.s1t05.flac:d9931a7f85c9538a1e465e06d005f539
gd1980-04-28.motb.0040.s1t06.flac:f19185218534592e91432596eb4cb91d
gd1980-04-28.motb.0040.s1t07.flac:2176db419d2bc260e97e239e5740738b
gd1980-04-28.motb.0040.s1t08.flac:ceda7bc9b189330c33e4a4c782582ea4
gd1980-04-28.motb.0040.s1t09.flac:debc0637df810d0751b1979882a5bf83
gd1980-04-28.motb.0040.s1t10.flac:95d9271820f377e386629e77ecb49fc1
gd1980-04-28.motb.0040.s2t01.flac:64c2310912b20f25b83361cef5638f96
gd1980-04-28.motb.0040.s2t02.flac:c906dc460a7d784e225c0121c14d4c7f
gd1980-04-28.motb.0040.s2t03.flac:2f3eb76ae4b17e4e0da4bb0d0e1dd4e3
gd1980-04-28.motb.0040.s2t04.flac:fc437ada88820b94b478455d2903f8ec
gd1980-04-28.motb.0040.s2t05.flac:2f7efebc3e3c90cdc399f9f8201f51ef
gd1980-04-28.motb.0040.s2t06.flac:ba0d202ed1908eac6dc0da65b242be48
gd1980-04-28.motb.0040.s2t07.flac:e673995753b6a26f7eac2c9152e9b9af
gd1980-04-28.motb.0040.s2t08.flac:d418e29092c0ad5bf4eeaaf910a00d80
gd1980-04-28.motb.0040.s2t09.flac:eb3a5683ca81e89cd4afdabb8a9cc86c
gd1980-04-28.motb.0040.s2t10.flac:5e338610ca5d94b5d2afe81324a77df5
gd1980-04-28.motb.0040.sEt01.flac:a2b1638fcab8a4db52b8979dab5f9fc5
flac-md5
6d2f86f1084555947a3b716f76af7632 *gd1980-04-28.motb.0040.s1t01.flac
e5edfa798eca24de21299fe7ab37041e *gd1980-04-28.motb.0040.s1t02.flac
eaf3151213ce731aaa684e04a51c8a6e *gd1980-04-28.motb.0040.s1t03.flac
88f76bf81380dec722c371e723ffbbb0 *gd1980-04-28.motb.0040.s1t04.flac
311e345d97fce37bf00c01a285224f33 *gd1980-04-28.motb.0040.s1t05.flac
70756e96eb86917325969cddbcac93c1 *gd1980-04-28.motb.0040.s1t06.flac
7fab8f1d133987e15f334bab0a8c7ae8 *gd1980-04-28.motb.0040.s1t07.flac
97a3b1ed86767336aa59d79afa82a3be *gd1980-04-28.motb.0040.s1t08.flac
9a1d6267239028165c4503b13fa0dafb *gd1980-04-28.motb.0040.s1t09.flac
dd6aff5f65cdfb4887d69054fa77f7bf *gd1980-04-28.motb.0040.s1t10.flac
0296b53ce7127137224cc66d97af90cc *gd1980-04-28.motb.0040.s2t01.flac
f9266ae5ea782dc36c0ef18ff4b469ab *gd1980-04-28.motb.0040.s2t02.flac
90ec89a061f6d0e35832c55d33837c91 *gd1980-04-28.motb.0040.s2t03.flac
c76c4a0f6f8033d3e31a8c9beb76d121 *gd1980-04-28.motb.0040.s2t04.flac
2c669acf00bce4034896645e27c09f34 *gd1980-04-28.motb.0040.s2t05.flac
c421114334ce974fadc101ee1ea74eef *gd1980-04-28.motb.0040.s2t06.flac
b5f7ee2caaf4b78d68a452af6ba21be6 *gd1980-04-28.motb.0040.s2t07.flac
a46d551658e515551932945ef3517e66 *gd1980-04-28.motb.0040.s2t08.flac
34b346eca8aa6065ba139db5382bd6df *gd1980-04-28.motb.0040.s2t09.flac
fd6b005906d67ce6f964d0fbfafdd512 *gd1980-04-28.motb.0040.s2t10.flac
e6479c8e66f84fddb30f05a673050b9c *gd1980-04-28.motb.0040.sEt01.flac

Comments
Add Comment
Other Sources (comments)
Recording by Barry... (0) Recording by Barry... (0) flac16 Recording by... (1) flac16; (FOB) Sony... (0) flac16; Recorded By... (0)
Date User Comment