Browse Collections Artists Sources   Search Dates

Add Show    List Management    Help


Grateful Dead 07/13/94
Franklin County Airport, Highgate, VT
Comments Add Comment    Source Collectors    Add to Collection    Add to Want List    History
Source # 88931 Other Sources
Entered by dr.unclear
Checksums ffp , flac-md5
Disc Counts 2 / 3
Media Size
Date Circulated
Date Added
12/02/2007
12/02/2007
Source Summary flac16; AKG 460B/ck61 > custom pre-amp > Sony D7 (@ 48 kHz); Tascam DA-20MKII > Tascam HD-P2 > WaveLab 5.01b (fades) > r8brain v1.9 (resample to 44.1 kHz) > CD Wave v1.96.1 > FLAC v1.2.1 (Level 8); Taped by Dave Flaschner; Transferred by Jason Sobel 
  Archive
Source Information - Download Text | Download Zip
Grateful Dead
July 13, 1994
Franklin County Airport
Highgate, VT

source:
AKG 460B/ck61 > custom pre-amp > Sony D7 (@ 48 kHz)

transfer:
Tascam DA-20MKII > Tascam HD-P2 > CF card > usb 2.0 > pc > WaveLab 5.01b (fades) > r8brain v1.9 (resample to 44.1 kHz) > CD Wave v1.96.1 > FLAC v1.2.1 (Level 8)

FLAC tags added with metaflac v1.2.1

recorded by Dave Flaschner
transferred by Jason Sobel ([email protected])
seeded December 2, 2007

notes:
The original 48 kHz .wav files from the DAT transfer have been archived, and are available upon request.
Big thanks to Dave for letting me borrow the master DAT tape!

Disc 1 - [71:03]
Set I
01 - [01:59] - intro
02 - [04:06] - Let the Good Times Roll
03 - [08:37] - Jack Straw
04 - [07:51] - Althea
05 - [06:44] - Queen Jane Approximately
06 - [08:06] - Loser
07 - [08:41] - It's All Over Now
08 - [09:35] - Tennessee Jed
09 - [15:23] - Let It Grow

Disc 2 - [45:26]
Set II
01 - [04:04] - intro
02 - [07:04] - Truckin' >
03 - [06:45] - New Speedway Boogie
04 - [06:33] - Way To Go Home
05 - [10:20] - Corrina >
06 - [10:41] - Uncle John's Band >

Disc 3 - [62:52]
Set II continued
01 - [17:01] - Drums >
02 - [12:34] - Space >
03 - [04:19] - I Want To Tell You >
04 - [04:11] - I Need A Miracle >
05 - [08:13] - Standing On The Moon >
06 - [09:02] - Sugar Magnolia
07 - [01:56] - encore break
08 - [05:36] - U.S. Blues

--------------------------------------------------------------------------------------------------

SHNtool output:

    length     expanded size   cdr  WAVE problems filename
     1:58.47       20925788    ---   --   ---xx   gd1994-07-13d1t01.flac
     4:06.26       43455596    ---   --   ---xx   gd1994-07-13d1t02.flac
     8:37.35       91281164    ---   --   ---xx   gd1994-07-13d1t03.flac
     7:51.25       83143244    ---   --   ---xx   gd1994-07-13d1t04.flac
     6:44.11       71291516    ---   --   ---xx   gd1994-07-13d1t05.flac
     8:06.22       85782188    ---   --   ---xx   gd1994-07-13d1t06.flac
     8:40.68       91887980    ---   --   ---xx   gd1994-07-13d1t07.flac
     9:35.19      101474732    ---   --   ---xx   gd1994-07-13d1t08.flac
    15:22.47      162751388    ---   --   ---xx   gd1994-07-13d1t09.flac
     4:04.08       43060460    ---   --   ---xx   gd1994-07-13d2t01.flac
     7:03.40       74711324    ---   --   ---xx   gd1994-07-13d2t02.flac
     6:44.47       71376188    ---   --   ---xx   gd1994-07-13d2t03.flac
     6:33.12       69353468    ---   --   ---xx   gd1994-07-13d2t04.flac
    10:19.68      109351580    ---   --   ---xx   gd1994-07-13d2t05.flac
    10:41.02      113077148    ---   --   ---xx   gd1994-07-13d2t06.flac
    17:00.54      180055052    ---   --   ---xx   gd1994-07-13d3t01.flac
    12:33.69      132991532    ---   --   ---xx   gd1994-07-13d3t02.flac
     4:19.37       45774668    ---   --   ---xx   gd1994-07-13d3t03.flac
     4:10.38       44189420    ---   --   ---xx   gd1994-07-13d3t04.flac
     8:13.13       86995820    ---   --   ---xx   gd1994-07-13d3t05.flac
     9:01.73       95604140    ---   --   ---xx   gd1994-07-13d3t06.flac
     1:56.14       20495372    ---   --   ---xx   gd1994-07-13d3t07.flac
     5:35.50       59211644    ---   --   ---xx   gd1994-07-13d3t08.flac
   179:21.00     1898241412 B                     (totals for 23 files, 0.4820 overall compression ratio)

Show Checksums
ffp
gd1994-07-13d1t01.flac:2ca043f39306111f94915001e4eefa60
gd1994-07-13d1t02.flac:8f29821ae8183f1c4d6267e89135d24d
gd1994-07-13d1t03.flac:a6892d505552e1b13f1249bd5b6d7a66
gd1994-07-13d1t04.flac:4f141d35611674e9da69d4ba4fa773fc
gd1994-07-13d1t05.flac:96f9a66be7b5036ef8cef6c287a2950a
gd1994-07-13d1t06.flac:668ac9d5babcad0626843789c22648f7
gd1994-07-13d1t07.flac:57bc358475fe1c0d2c9374aed24c6e9f
gd1994-07-13d1t08.flac:3ed6a8527f0cfe5655d9c54aeeb2e4ee
gd1994-07-13d1t09.flac:20ba6cf4a00451c766657392bb16c7b3
gd1994-07-13d2t01.flac:44803eb895ba6d24b048ba69f1391e62
gd1994-07-13d2t02.flac:bbc0f6ec2331e5be6973767befe7d8c0
gd1994-07-13d2t03.flac:05e55719f149ba180f38c42ae7e0ea98
gd1994-07-13d2t04.flac:a40933c0d185bdb6b773b7bf108fa1cb
gd1994-07-13d2t05.flac:f9e10988b62a22620df474c120c06761
gd1994-07-13d2t06.flac:2765394d94f332a48a14ee65cf5a9067
gd1994-07-13d3t01.flac:fae2b20696fc36f3ab22fc6da87826dd
gd1994-07-13d3t02.flac:8ffbb4899c737492057e2594c7e051ce
gd1994-07-13d3t03.flac:05ce015ffe33b11c923c71bc65809406
gd1994-07-13d3t04.flac:d8f15381bd4265068ceb8ad9dcbcb29a
gd1994-07-13d3t05.flac:1441750db2dc732e33882425295a4ad5
gd1994-07-13d3t06.flac:4ce621e586f827143b59d2d40476a899
gd1994-07-13d3t07.flac:b46937687b9358d470a4568b3a320281
gd1994-07-13d3t08.flac:a1bb20073498a24e7b154d2292b3f4ec
flac-md5
27916d5fd8a535e9355d906008e2e8d5 *gd1994-07-13d1t01.flac
633f043a3764ad08d0267046a7366ec0 *gd1994-07-13d1t02.flac
719fe5c98b785f157c2e13c78002dcfa *gd1994-07-13d1t03.flac
f5caa415b5254ed1bd05c5b85f78e449 *gd1994-07-13d1t04.flac
bf7879b93668213fe44f8e900d3fb092 *gd1994-07-13d1t05.flac
77c806e1ea2f4b2dee75873e8a80d1da *gd1994-07-13d1t06.flac
ae0415207751be2e1c9dfafc7b1153c7 *gd1994-07-13d1t07.flac
580aae00d32f6c76d91cab3b0913c5d3 *gd1994-07-13d1t08.flac
85727ef806f43203d3e4a305e1f85b8d *gd1994-07-13d1t09.flac
e55b70e727442fad6c43caf8a404e285 *gd1994-07-13d2t01.flac
44549c08a0f32593c20f27b7d3deb3b7 *gd1994-07-13d2t02.flac
e54dc3f0e5ad7b5103b0f554d88b7155 *gd1994-07-13d2t03.flac
31f53ce67c9eff9e3332d0a0b09e5453 *gd1994-07-13d2t04.flac
7c5d790c2494c8dece9a01ce2b02838c *gd1994-07-13d2t05.flac
fd1abb269fc5d132a70f277dcb980dd7 *gd1994-07-13d2t06.flac
9f8c07e80c5efea286bca150404a9a07 *gd1994-07-13d3t01.flac
268fab86ef7b4a1996c4e9fd058fbb18 *gd1994-07-13d3t02.flac
f471f21c76770b74654db8efaf95778a *gd1994-07-13d3t03.flac
a9db4ad5a7a7c379e6f6340376a7306b *gd1994-07-13d3t04.flac
50dc1c6d67def44a84524a99170116c3 *gd1994-07-13d3t05.flac
29dc226b53cc0f2ff194519fce2b1888 *gd1994-07-13d3t06.flac
fbb876a0b54eb6a2b8846d62e4fb2419 *gd1994-07-13d3t07.flac
7a59be3918af13777ea7b34c8589d738 *gd1994-07-13d3t08.flac

Comments
Add Comment
Other Sources (comments)
AKG-460-CKIX>Sony D-7>CDR;... (0) M:D>SHN digital transfer... (0) Source: Schoeps CMC 44... (0) flac16; Source:... (0) flac16/48; Schoeps... (0) flac16; Source:... (0) flac16; Master: OTS... (0) flac16; source: FOB... (0) flac16/48kHz;... (0)
Date User Comment