Browse Collections Artists Sources   Search Dates

Add Show    List Management    Help


Grateful Dead 08/16/80
Southern Illinois University, Edwardsville, IL
Comments Add Comment    Source Collectors    Add to Collection    Add to Want List    History
Source # 88959 Other Sources
Entered by Matt Vernon
Checksums flac-md5 , ffp
Disc Counts 2 / 3
Media Size
Date Circulated
Date Added
12/04/2007
12/06/2007
Source Summary flac16; Recording by Joani Walker: Sony ECM-250 -> Cassette Master (Sony TC-158/Maxell UDXL-II90) Transfer Info: Cassette Master (Nakamichi DR-1) -> Sound Devices 744T (24bit/96k) -> Samplitude Professional v9.12 -> FLAC/16 All Transfers and Mastering By Charlie Miller 
  Archive
Source Information - Download Text | Download Zip
Grateful Dead - August 16, 1980
Mississippi River Festival - Edwardsville, IL

Recording Info:
Sony ECM-250 -> Cassette Master (Sony TC-158/Maxell UDXL-II90)

Transfer Info:
Cassette Master (Nakamichi DR-1) -> Sound Devices 744T (24bit/96k) ->
Samplitude Professional v9.12 -> FLAC/16
(3 Discs Audio / 2 Discs FLAC)

All Transfers and Mastering By Charlie Miller
[email protected]
December 4, 2007

Notes:
-- Set 2 is seamless
-- Recorded By Joani Walker
-- Thanks to Joani Walker and Paul Scotton for the tapes
-- Tape flips during He's Gone and Sugar Magnolia (before SSDD)
-- Various PA noises throughout the show
-- Rain starts getting heavy during Ship Of Fools

Set 1:
d1t01 - Alabama Getaway ->
d1t02 - The Promised Land
d1t03 - They Love Each Other
d1t04 - Me And My Uncle ->
d1t05 - El Paso
d1t06 - Althea ->
d1t07 - Looks Like Rain
d1t08 - Tennessee Jed
d1t09 - Easy To Love You
d1t10 - New Minglewood Blues
d1t11 - Deal

Set 2:
d2t01 - Tuning
d2t02 - C C Rider ->
d2t03 - China Cat Sunflower ->
d2t04 - I Know You Rider
d2t05 - Ship Of Fools
d2t06 - Estimated Prophet ->
d2t07 - He's Gone ->
d2t08 - Drums ->
d3t01 - Space ->
d3t02 - The Other One ->
d3t03 - Black Peter ->
d3t04 - Sugar Magnolia

Encore:
d3t05 - Iko Iko
d3t06 - One More Saturday Night


SHNTOOL OUTPUT:
    length     expanded size   cdr  WAVE problems filename
     5:28.01       57861596    ---   --   -----   gd80-08-16d1t01.wav
     4:31.65       47957324    ---   --   -----   gd80-08-16d1t02.wav
     8:02.65       85177724    ---   --   -----   gd80-08-16d1t03.wav
     3:04.11       32483516    ---   --   -----   gd80-08-16d1t04.wav
     4:52.72       51678188    ---   --   -----   gd80-08-16d1t05.wav
     8:04.58       85514060    ---   --   -----   gd80-08-16d1t06.wav
     8:30.16       90001676    ---   --   -----   gd80-08-16d1t07.wav
     9:00.04       95265452    ---   --   -----   gd80-08-16d1t08.wav
     3:57.64       41957372    ---   --   -----   gd80-08-16d1t09.wav
     7:24.19       78366332    ---   --   -----   gd80-08-16d1t10.wav
     5:32.25       58623644    ---   --   -----   gd80-08-16d1t11.wav
     1:25.03       15001100    ---   --   -----   gd80-08-16d2t01.wav
     6:23.71       67728236    ---   --   -----   gd80-08-16d2t02.wav
     5:46.69       61196732    ---   --   -----   gd80-08-16d2t03.wav
     7:44.16       81887276    ---   --   -----   gd80-08-16d2t04.wav
     8:01.57       84982508    ---   --   -----   gd80-08-16d2t05.wav
    11:37.37      123037868    ---   --   -----   gd80-08-16d2t06.wav
    13:33.28      143479100    ---   --   -----   gd80-08-16d2t07.wav
     8:32.27       90380348    ---   --   -----   gd80-08-16d2t08.wav
     4:26.04       46931852    ---   --   -----   gd80-08-16d3t01.wav
     7:45.51       82145996    ---   --   -----   gd80-08-16d3t02.wav
     9:31.46      100832636    ---   --   -----   gd80-08-16d3t03.wav
     8:31.57       90274508    ---   --   -----   gd80-08-16d3t04.wav
     5:20.10       56471564    ---   --   -----   gd80-08-16d3t05.wav
     5:03.22       53500988    ---   --   -----   gd80-08-16d3t06.wav
   172:12.73     1822737596 B                     (totals for 25 files)
Show Checksums
flac-md5
2c98145a5b51b3d2b88753c06eb58df1 *gd80-08-16d1t01.flac
8b6b3fb7f89082161381bfd6abc5deef *gd80-08-16d1t02.flac
aac1e5ae2de0fc004c4acbd3fcfcd171 *gd80-08-16d1t03.flac
90e090f9cb5a91aa6616dc3226acf74f *gd80-08-16d1t04.flac
905652195cf66e7e28e1400089db93ef *gd80-08-16d1t05.flac
521233278e95ce48be8ccd824ca46b4f *gd80-08-16d1t06.flac
8f502fbf6fa1ffa8dfb36325d7e1b1a8 *gd80-08-16d1t07.flac
40ab909f0312f9ba405036b0bee05bcc *gd80-08-16d1t08.flac
67bf51bd07919b6bddb2d381e106d998 *gd80-08-16d1t09.flac
1e8bdee47b5f921cd3f5908feb03188e *gd80-08-16d1t10.flac
a0086ddec38d9dc34a4538b33535ddcf *gd80-08-16d1t11.flac
65634d9dc60f7d5650276283de97cd78 *gd80-08-16d2t01.flac
e81a9786bf2910cd80b65eb7fb048dea *gd80-08-16d2t02.flac
8f28f0178c046300777235e420b1f4ca *gd80-08-16d2t03.flac
d14e2f099841add7eb1d5a8de5ff613a *gd80-08-16d2t04.flac
1ab44825b6eceaf2dc738b224e255446 *gd80-08-16d2t05.flac
408c1397373ce76668ea094ae2d74da9 *gd80-08-16d2t06.flac
b5f6aea73e0b5b1fa186957722f85390 *gd80-08-16d2t07.flac
b1a26259981eb58240e0bc335387a977 *gd80-08-16d2t08.flac
9d023a6acef06520f56f7329c81e86d3 *gd80-08-16d3t01.flac
89a7ffa91dbf075ef31b1effc887936a *gd80-08-16d3t02.flac
8cdc514a004fa64da7b3cac0d9caed8f *gd80-08-16d3t03.flac
b12064d492ab5d125b936e88611f61e3 *gd80-08-16d3t04.flac
0e65a9530926bb5bfdd84bc7e44208bb *gd80-08-16d3t05.flac
93b1df493c05fbb9221f018901c20f5f *gd80-08-16d3t06.flac
ffp
gd80-08-16d1t01.flac:336db02b1fa5174a7c104d6b1fd863a1
gd80-08-16d1t02.flac:28a833256b67d8edcbb2c2f583c08e43
gd80-08-16d1t03.flac:26b7bc2bfa7fe3630c0b0f2e2e9c5bb2
gd80-08-16d1t04.flac:1531e40300f4dd95bb4dac188d053427
gd80-08-16d1t05.flac:f863e0502ca9d91d09d88aca4db96a89
gd80-08-16d1t06.flac:b26cb4a933c565e5b92a92ce26fc7b1e
gd80-08-16d1t07.flac:cf1a5729159843d893f794249b0e6538
gd80-08-16d1t08.flac:e04194e48951a47bbcf3beb9061163d6
gd80-08-16d1t09.flac:7e0040d821d2ea90e104b8c65ec3e844
gd80-08-16d1t10.flac:d1b0bf80377ab664ff742267d2f0d274
gd80-08-16d1t11.flac:a3d132a430cbba427d770af9cd42d5e4
gd80-08-16d2t01.flac:c9e9576d6ad764cd274cc2a99ee32c77
gd80-08-16d2t02.flac:c05172024ddb657fd76a19b32a5700c2
gd80-08-16d2t03.flac:494a8387d1936e7807921ce9a1b10b81
gd80-08-16d2t04.flac:5120dde476f158ab5020850a42cb8dfe
gd80-08-16d2t05.flac:a441768e47d8b4881b64e7f85bfcd253
gd80-08-16d2t06.flac:1736145fa55b339163ee0a0a30a08367
gd80-08-16d2t07.flac:1ba58ab300477e483cda1a05fb47d388
gd80-08-16d2t08.flac:7887e4a4f52a74abfdb5c43ba1ea89f1
gd80-08-16d3t01.flac:298e199975dbebd68d98d8c13abe6c93
gd80-08-16d3t02.flac:359298a8c9f8deac6456d869466e2dd5
gd80-08-16d3t03.flac:4212aa1bad9d05e6b678367d74d63953
gd80-08-16d3t04.flac:b1897af192e5b516ff4947d95d6fd804
gd80-08-16d3t05.flac:3214c44230c7a564d3ce1e8def8fc27d
gd80-08-16d3t06.flac:61fc886a2be7895a0b121824fdd84e86

Comments
Add Comment
Other Sources (comments)
Source: MAC>DAT>CDR &... (0) Recording by Joani Walker:... (0) flac16; Set 1 &... (0)
Date User Comment