Browse Collections Artists Sources   Search Dates

Add Show    List Management    Help


Robert Hunter 03/10/83
The Chance, Poughkeepsie, NY
Comments Add Comment    Source Collectors    Add to Collection    Add to Want List    History
Source # 88973 Other Sources
Entered by Greg Yurkovic
Checksums ffp , md5
Disc Counts 1 / 2
Media Size
Date Circulated
Date Added
12/07/2007
12/08/2007
Source Summary flac16: AUD, unknown equipment. 1st generation (MAC > C) Transfer: C > Nakamichi DR-8 (no Dolby) > Audiophile 2496 > Soundforge > CD-Wave > TLH > FLAC 
Source Information - Download Text | Download Zip
ROBERT HUNTER
The Chance
Poughkeepsie NY
03-10-1983

Disc One - Set One (32:36)

01 //end of unknown song
02 Touch of Grey
03 banter
04 Slack String Quartet
05 Wharf Rat
06 Amagamalin Street
07 Tiger Rose
08 Dry Dusty Road
09 Sugaree

Disc Two - Set Two (56:46)

01 Mason's Children >
02 Scarlet Begonias
03 Franklin's Tower
04 Friend of the Devil
05 Touch of Darkness
06 banter
07 Rubin & Cherise
08 Terrapin Suite >
09 Jack O' Diamonds// (tape flip)
10 //Terrapin Reprise
11 Ripple
12 Boys in the Barroom
-- encore --
13 Promontory Rider

AUD, unknown equipment. 1st generation (MAC > C) tape provided by Mark
Gillette via Jake Feinberg.

Transfer: C > Nakamichi DR-8 (no Dolby) > Audiophile 2496 > Soundforge >
CD-Wave > TLH > FLAC.

Notes:
- Unknown number of songs missing from start of show (maybe 3 or 4?).
- Recording is a bit distant and muddy, with some loud crowd intrusion.
- Many loud bottle-crashing sounds from the bar during the whole show.
- Mic adjustments at the start of Mason's Children.
- LC hi-end muffled from 4:58 of Scarlet (crowd) to 2:40 of Franklin's.
- Ripple & Promontory Rider cut in on the first notes.
- Soundforge used for fades, some small edits, and adjusting levels.
- TLH used for SBE-OK, FLAC compression, and checksums.

md5

aef65e106edb34f92c41de7ae14026a6 *rh1983-03-10d1t01.flac
27987ec6f75616abd21c4310f8dd6c8b *rh1983-03-10d1t02.flac
9d50a65f14c187aa43dc53ce6879ba7a *rh1983-03-10d1t03.flac
6d9826420b72080c9ee1333771ec74b6 *rh1983-03-10d1t04.flac
e8be227c52e832169cd2ff41b701eb5d *rh1983-03-10d1t05.flac
ef510c078fd5a4e09813d08da68d72cc *rh1983-03-10d1t06.flac
589e1ae16bee6bed295227d90ca8cc8b *rh1983-03-10d1t07.flac
d55ffa18d6c47382938506ef8fab17e2 *rh1983-03-10d1t08.flac
01f033b9ab64b95b952d32af7b2ea962 *rh1983-03-10d1t09.flac
4f9e5f8e68dba4f0949748b5d34194e7 *rh1983-03-10d2t01.flac
50052dfa4d5ce371aa43a9c5ae3a0331 *rh1983-03-10d2t02.flac
799ba40147f3e9d80d8337e953ab6669 *rh1983-03-10d2t03.flac
24e9030d4bb61d758def0631f0f239a4 *rh1983-03-10d2t04.flac
de43125292bc32c64dc4f3e0df675f11 *rh1983-03-10d2t05.flac
684b50676709b01c960a17cd3c173dae *rh1983-03-10d2t06.flac
e92ec5c85f00d761dc94ab6af31d7756 *rh1983-03-10d2t07.flac
7cd44bb66a7a984fcb18f36e910bd523 *rh1983-03-10d2t08.flac
778c1c9649e739e0b6ac1a3225261ad8 *rh1983-03-10d2t09.flac
4ba289aba8333901fe9783afe1895ccc *rh1983-03-10d2t10.flac
1092d3c0cd5a9bbe2e28b8175b681260 *rh1983-03-10d2t11.flac
9b8b535ce2905821160cfb01cb996e46 *rh1983-03-10d2t12.flac
c30c8ce358281de8bfa23d35c7438b8b *rh1983-03-10d2t13.flac

ffp

rh1983-03-10d1t01.flac:aaddbb9e34ddc77bdd22addf13754fc0
rh1983-03-10d1t02.flac:602332e25c3accbaa4f9c2fd302b92f2
rh1983-03-10d1t03.flac:dd83a6d4945f8a5fe13509d2c6a0e116
rh1983-03-10d1t04.flac:07b062d836492c4f4e42fe2d800740be
rh1983-03-10d1t05.flac:f950bcaf61ef02c6af6f72ad08719185
rh1983-03-10d1t06.flac:dad62318683cf87fff390ccfc1b01506
rh1983-03-10d1t07.flac:0c628f4f3eb20abdbd479ffbd5567ec1
rh1983-03-10d1t08.flac:415f5e2061ec815426eb87692a78df3e
rh1983-03-10d1t09.flac:0fbe0f2f3a8b85351b24c2d5dd41055e
rh1983-03-10d2t01.flac:f6631ee8de3dd49f6da088da33ca4569
rh1983-03-10d2t02.flac:245863b71d2838b910c4cd684a399988
rh1983-03-10d2t03.flac:ba84fc650e1c9a77691ef6a87fb44d75
rh1983-03-10d2t04.flac:0cab46f19727e0a212707413338ed2c2
rh1983-03-10d2t05.flac:62acf4e65195f35474425c1af5cd848e
rh1983-03-10d2t06.flac:7289a25efcc98cef88e58103b4721bac
rh1983-03-10d2t07.flac:343d72c1fca0d2f81bc6779bf80f491b
rh1983-03-10d2t08.flac:d46c9258480bf6045abc559df3aa74a3
rh1983-03-10d2t09.flac:cb5265059efc5a229eda688e4f92038c
rh1983-03-10d2t10.flac:1d2d656ec1a8240cdac067da0e6f81a6
rh1983-03-10d2t11.flac:be409d2da471226c35eb47b36e1fd22a
rh1983-03-10d2t12.flac:e0502eb263b08de3094f89bf7cab2de4
rh1983-03-10d2t13.flac:e348f84015a0910a61d76d423c3d21ba

shntool

    length     expanded size   cdr  WAVE problems filename
     0:29.28        5181500    ---   --   ---xx   rh1983-03-10d1t01.flac
     4:52.53       51633500    ---   --   ---xx   rh1983-03-10d1t02.flac
     1:16.07       13422908    ---   --   ---xx   rh1983-03-10d1t03.flac
     6:26.17       68130428    ---   --   ---xx   rh1983-03-10d1t04.flac
     3:49.51       40515596    ---   --   ---xx   rh1983-03-10d1t05.flac
     4:41.51       49688396    ---   --   ---xx   rh1983-03-10d1t06.flac
     3:30.10       37067564    ---   --   ---xx   rh1983-03-10d1t07.flac
     2:38.49       27986492    ---   --   ---xx   rh1983-03-10d1t08.flac
     4:51.73       51504140    ---   --   ---xx   rh1983-03-10d1t09.flac
     5:17.07       55935308    ---   --   ---xx   rh1983-03-10d2t01.flac
     5:12.10       55060364    ---   --   ---xx   rh1983-03-10d2t02.flac
     3:46.60       40007564    ---   --   ---xx   rh1983-03-10d2t03.flac
     4:04.51       43161596    ---   --   ---xx   rh1983-03-10d2t04.flac
     5:04.11       53651516    ---   --   ---xx   rh1983-03-10d2t05.flac
     3:14.17       34261628    ---   --   ---xx   rh1983-03-10d2t06.flac
     7:46.38       82291820    ---   --   ---xx   rh1983-03-10d2t07.flac
     8:19.36       88108316    ---   --   ---xx   rh1983-03-10d2t08.flac
     3:15.63       34546220    ---   --   ---xx   rh1983-03-10d2t09.flac
     0:40.38        7145420    ---   --   ---xx   rh1983-03-10d2t10.flac
     3:08.73       33334940    ---   --   ---xx   rh1983-03-10d2t11.flac
     1:16.14       13439372    ---   --   ---xx   rh1983-03-10d2t12.flac
     5:39.55       59929004    ---   --   ---xx   rh1983-03-10d2t13.flac
    89:22.62      946003592 B                     (totals for 22 files, 0.5916 overall compression ratio)

There were no sector boundary errors.
Show Checksums
ffp
rh1983-03-10d1t01.flac:aaddbb9e34ddc77bdd22addf13754fc0
rh1983-03-10d1t02.flac:602332e25c3accbaa4f9c2fd302b92f2
rh1983-03-10d1t03.flac:dd83a6d4945f8a5fe13509d2c6a0e116
rh1983-03-10d1t04.flac:07b062d836492c4f4e42fe2d800740be
rh1983-03-10d1t05.flac:f950bcaf61ef02c6af6f72ad08719185
rh1983-03-10d1t06.flac:dad62318683cf87fff390ccfc1b01506
rh1983-03-10d1t07.flac:0c628f4f3eb20abdbd479ffbd5567ec1
rh1983-03-10d1t08.flac:415f5e2061ec815426eb87692a78df3e
rh1983-03-10d1t09.flac:0fbe0f2f3a8b85351b24c2d5dd41055e
rh1983-03-10d2t01.flac:f6631ee8de3dd49f6da088da33ca4569
rh1983-03-10d2t02.flac:245863b71d2838b910c4cd684a399988
rh1983-03-10d2t03.flac:ba84fc650e1c9a77691ef6a87fb44d75
rh1983-03-10d2t04.flac:0cab46f19727e0a212707413338ed2c2
rh1983-03-10d2t05.flac:62acf4e65195f35474425c1af5cd848e
rh1983-03-10d2t06.flac:7289a25efcc98cef88e58103b4721bac
rh1983-03-10d2t07.flac:343d72c1fca0d2f81bc6779bf80f491b
rh1983-03-10d2t08.flac:d46c9258480bf6045abc559df3aa74a3
rh1983-03-10d2t09.flac:cb5265059efc5a229eda688e4f92038c
rh1983-03-10d2t10.flac:1d2d656ec1a8240cdac067da0e6f81a6
rh1983-03-10d2t11.flac:be409d2da471226c35eb47b36e1fd22a
rh1983-03-10d2t12.flac:e0502eb263b08de3094f89bf7cab2de4
rh1983-03-10d2t13.flac:e348f84015a0910a61d76d423c3d21ba
md5
aef65e106edb34f92c41de7ae14026a6 *rh1983-03-10d1t01.flac
27987ec6f75616abd21c4310f8dd6c8b *rh1983-03-10d1t02.flac
9d50a65f14c187aa43dc53ce6879ba7a *rh1983-03-10d1t03.flac
6d9826420b72080c9ee1333771ec74b6 *rh1983-03-10d1t04.flac
e8be227c52e832169cd2ff41b701eb5d *rh1983-03-10d1t05.flac
ef510c078fd5a4e09813d08da68d72cc *rh1983-03-10d1t06.flac
589e1ae16bee6bed295227d90ca8cc8b *rh1983-03-10d1t07.flac
d55ffa18d6c47382938506ef8fab17e2 *rh1983-03-10d1t08.flac
01f033b9ab64b95b952d32af7b2ea962 *rh1983-03-10d1t09.flac
4f9e5f8e68dba4f0949748b5d34194e7 *rh1983-03-10d2t01.flac
50052dfa4d5ce371aa43a9c5ae3a0331 *rh1983-03-10d2t02.flac
799ba40147f3e9d80d8337e953ab6669 *rh1983-03-10d2t03.flac
24e9030d4bb61d758def0631f0f239a4 *rh1983-03-10d2t04.flac
de43125292bc32c64dc4f3e0df675f11 *rh1983-03-10d2t05.flac
684b50676709b01c960a17cd3c173dae *rh1983-03-10d2t06.flac
e92ec5c85f00d761dc94ab6af31d7756 *rh1983-03-10d2t07.flac
7cd44bb66a7a984fcb18f36e910bd523 *rh1983-03-10d2t08.flac
778c1c9649e739e0b6ac1a3225261ad8 *rh1983-03-10d2t09.flac
4ba289aba8333901fe9783afe1895ccc *rh1983-03-10d2t10.flac
1092d3c0cd5a9bbe2e28b8175b681260 *rh1983-03-10d2t11.flac
9b8b535ce2905821160cfb01cb996e46 *rh1983-03-10d2t12.flac
c30c8ce358281de8bfa23d35c7438b8b *rh1983-03-10d2t13.flac

Comments
Add Comment
Date User Comment