Browse Collections Artists Sources   Search Dates

Add Show    List Management    Help


Grateful Dead 09/27/80
Warfield Theater, San Francisco, CA
Comments Add Comment    Source Collectors    Add to Collection    Add to Want List    History
Source # 89006 Other Sources
Entered by Matt Vernon
Checksums ffp , flac-md5
Disc Counts 2 / 3
Media Size
Date Circulated
Date Added
12/11/2007
12/11/2007
Source Summary flac16; Recording by Joani Walker: Nakamichi 300 -> Cassette Master (Sony D5M/Maxell UDXL-II90) Transfer Info: Cassette Master (Nakamichi DR-1) -> Sound Devices 744T (24bit/96k) -> Samplitude Professional v9.12 -> FLAC/16 All Transfers and Mastering By Charlie Miller 
  Archive
Source Information - Download Text | Download Zip
Grateful Dead - September 27, 1980
Warfield Theatre - San Francisco, CA

Recording Info:
Nakamichi 300 -> Cassette Master (Sony D5M/Maxell UDXL-II90)

Transfer Info:
Cassette Master (Nakamichi DR-1) -> Sound Devices 744T (24bit/96k) ->
Samplitude Professional v9.12 -> FLAC/16
(3 Discs Audio / 2 Discs FLAC)

All Transfers and Mastering By Charlie Miller
[email protected]
December 10, 2007

Patch Info:
(3) Nakamichi 700 -> Cassette Master -> Cass -> Dat -> CD (shnid=11590) supplies:
Row Jimmy (0:00 - 0:07)
Drums (3:04 - 3:28)

Notes:
-- All disc changes are seamless
-- Set 1 is acoustic
-- Recorded By Joani Walker
-- Thanks to Joani Walker and Paul Scotton for the tapes

Set 1:
d1t01 - Dire Wolf
d1t02 - The Race Is On
d1t03 - Jack-A-Roe
d1t04 - Monkey And The Engineer
d1t05 - It Must Have Been The Roses
d1t06 - Dark Hollow
d1t07 - Bird Song
d1t08 - To Lay Me Down
d1t09 - On The Road Again
d1t10 - Oh Babe It Ain't No Lie ->
d1t11 - Ripple

Set 2:
d1t12 - Mississippi Half-Step Uptown Toodeloo ->
d1t13 - Franklin's Tower
d1t14 - Mama Tried ->
d1t15 - Mexicali Blues
d2t01 - Row Jimmy
d2t02 - Little Red Rooster
d2t03 - Althea ->
d2t04 - Let It Grow
d2t05 - Deal

Set 3:
d2t06 - Tuning
d2t07 - Cold Rain And Snow
d2t08 - C C Rider
d2t09 - Ramble On Rose
d3t01 - He's Gone ->
d3t02 - The Other One ->
d3t03 - Drums ->
d3t04 - Space ->
d3t05 - Stella Blue ->
d3t06 - I Need A Miracle ->
d3t07 - Goin' Down The Road Feeling Bad ->
d3t08 - Johnny B. Goode

Encore:
d3t09 - One More Saturday Night


SHNTOOL OUTPUT:
    length     expanded size   cdr  WAVE problems filename
     3:45.61       39833516    ---   --   -----   gd80-09-27d1t01.wav
     3:09.50       33457244    ---   --   -----   gd80-09-27d1t02.wav
     4:28.18       47317580    ---   --   -----   gd80-09-27d1t03.wav
     2:45.44       29209532    ---   --   -----   gd80-09-27d1t04.wav
     6:31.08       68991260    ---   --   -----   gd80-09-27d1t05.wav
     3:19.13       35134220    ---   --   -----   gd80-09-27d1t06.wav
     6:56.23       73436540    ---   --   -----   gd80-09-27d1t07.wav
     8:50.06       93506156    ---   --   -----   gd80-09-27d1t08.wav
     3:30.73       37215740    ---   --   -----   gd80-09-27d1t09.wav
     5:39.02       59804348    ---   --   -----   gd80-09-27d1t10.wav
     4:41.14       49601372    ---   --   -----   gd80-09-27d1t11.wav
     8:45.23       92664140    ---   --   -----   gd80-09-27d1t12.wav
     9:26.26       99903596    ---   --   -----   gd80-09-27d1t13.wav
     2:27.26       25991996    ---   --   -----   gd80-09-27d1t14.wav
     4:28.14       47308172    ---   --   -----   gd80-09-27d1t15.wav
    10:48.58      114443660    ---   --   -----   gd80-09-27d2t01.wav
     7:45.49       82141292    ---   --   -----   gd80-09-27d2t02.wav
     7:54.39       83705372    ---   --   -----   gd80-09-27d2t03.wav
    11:22.55      120434204    ---   --   -----   gd80-09-27d2t04.wav
     6:12.17       65660828    ---   --   -----   gd80-09-27d2t05.wav
     0:31.42        5567228    ---   --   -----   gd80-09-27d2t06.wav
     5:35.33       59171660    ---   --   -----   gd80-09-27d2t07.wav
     6:44.61       71409116    ---   --   -----   gd80-09-27d2t08.wav
     7:08.31       75572156    ---   --   -----   gd80-09-27d2t09.wav
    11:11.37      118451468    ---   --   -----   gd80-09-27d3t01.wav
    10:09.13      107458220    ---   --   -----   gd80-09-27d3t02.wav
    10:19.60      109332764    ---   --   -----   gd80-09-27d3t03.wav
     7:05.40       75064124    ---   --   -----   gd80-09-27d3t04.wav
     7:57.50       84260444    ---   --   -----   gd80-09-27d3t05.wav
     3:28.74       36865292    ---   --   -----   gd80-09-27d3t06.wav
     6:01.20       63727484    ---   --   -----   gd80-09-27d3t07.wav
     5:02.11       53298716    ---   --   -----   gd80-09-27d3t08.wav
     4:50.41       51252476    ---   --   -----   gd80-09-27d3t09.wav
   208:55.07     2211191916 B                     (totals for 33 files)
Show Checksums
ffp
gd80-09-27d1t01.flac:826f7b7c2d592d315dc994ab54fb400c
gd80-09-27d1t02.flac:73e4789b558b76db635e365de53f7523
gd80-09-27d1t03.flac:4fc92d1c41f0e545142f27062da38e37
gd80-09-27d1t04.flac:6fa3cac2cec1e9f612bd02af97291f86
gd80-09-27d1t05.flac:aab2c67b668ee17127998c1b470b4f8a
gd80-09-27d1t06.flac:fd30683e67f0654b4d050b340deea625
gd80-09-27d1t07.flac:6ce8e28c36fa3462c08308ec3078b3bf
gd80-09-27d1t08.flac:ab378cad263f70bb5c81b70d408c98f7
gd80-09-27d1t09.flac:9e4f467b129aa25f6c56e8dddeb94161
gd80-09-27d1t10.flac:0fa2cb2ce048a3b2c908c6fbf60b61f7
gd80-09-27d1t11.flac:1fef1edaadc879781ec131cdbed6553a
gd80-09-27d1t12.flac:edaa2ee569da4ca84df2f33cfaf673be
gd80-09-27d1t13.flac:7ed8950af43571db2e19f85ab90b704b
gd80-09-27d1t14.flac:d9c0351da6971f2bd5d3fff9dce1cf11
gd80-09-27d1t15.flac:5effcf415772f5286eef4c2b0dd0681e
gd80-09-27d2t01.flac:04a2ea3575d774923a87b71643e07b1f
gd80-09-27d2t02.flac:e9750753c69899bdf395e609cd112d2d
gd80-09-27d2t03.flac:d474bb79f393488f391c00784cb818e0
gd80-09-27d2t04.flac:2535bebb86f9fa04f2cec37ebad46f53
gd80-09-27d2t05.flac:3e7598428bec3785e33c7882dec19c6e
gd80-09-27d2t06.flac:832150abc8c5579e43770adef8c17ac5
gd80-09-27d2t07.flac:a4594bc6ee65f206eb777d29bcb0714a
gd80-09-27d2t08.flac:04ce57e2ee334a60302668cae310f6d6
gd80-09-27d2t09.flac:2fc13897e46299727ef7c8c059aad80b
gd80-09-27d3t01.flac:8b262c6c35b06175442145967838529b
gd80-09-27d3t02.flac:c769147cf5808b25d1bc3c7873a95d71
gd80-09-27d3t03.flac:4b9c46ecec47bc35e4c961f8eb524a9c
gd80-09-27d3t04.flac:0de0ba81b3af5d7736438c9199a4a905
gd80-09-27d3t05.flac:22d64ba463a7d1eebc41961f03b1a4a4
gd80-09-27d3t06.flac:c70d5701cb1bcef6b61df2c0d171f5b4
gd80-09-27d3t07.flac:0b4acf061fc729cea761ac1cc40ec5f9
gd80-09-27d3t08.flac:d2b30155fb8fa6ac01e8f4546e3881c9
gd80-09-27d3t09.flac:943568e0042e05752a5134ef76ec2010
flac-md5
2091b12030e34f443d25b6f0adb82bbf *gd80-09-27d1t01.flac
bf0eb5ebee565b76856808620d3dbc31 *gd80-09-27d1t02.flac
5304ce0e14696699b9c9dc8520004412 *gd80-09-27d1t03.flac
1fecf578f11b7723564e077e199eab2f *gd80-09-27d1t04.flac
ac5f4c5acdd819127cd3b03033e7ce47 *gd80-09-27d1t05.flac
48f8ee5f8a552c2eda2387587efc1c69 *gd80-09-27d1t06.flac
251097095e83f6ad705f4c0e9925fb2f *gd80-09-27d1t07.flac
22e46b4b936da51519f0423b24ad9406 *gd80-09-27d1t08.flac
293dd559355c6db70056578fde71b4dc *gd80-09-27d1t09.flac
f2f5c7bc3b62f9dee1100dd551a72380 *gd80-09-27d1t10.flac
73d7b6ec14af32c3c9994ea94c6e384f *gd80-09-27d1t11.flac
dbbfebce81ec4e189a81c7fe55221d8e *gd80-09-27d1t12.flac
e8821c5cbfa89f816270d04d9ba4e9e4 *gd80-09-27d1t13.flac
02bd07285860b40bdc4ed5cf92b5dae7 *gd80-09-27d1t14.flac
5c7df937ff69ef639685782dea323ef8 *gd80-09-27d1t15.flac
4d95cd07b0a6d5d5f63e339b66fb4604 *gd80-09-27d2t01.flac
db4e0abbf98d95dad7bf7ba1699bbaf5 *gd80-09-27d2t02.flac
6b17d17eb41e2db8200f22189ce441be *gd80-09-27d2t03.flac
61c5a404e16b0b43caac2c0b97c3889e *gd80-09-27d2t04.flac
b8380bb8f6f004154c6e6c4a46ea7bb4 *gd80-09-27d2t05.flac
4d868498378a2f21d56676b3a7a0f461 *gd80-09-27d2t06.flac
edeac919bd30d9072ebfbacaab73e5f2 *gd80-09-27d2t07.flac
899e29cbf07062cad5e06f5ab08bc321 *gd80-09-27d2t08.flac
c74582f0b66def99b3eda10dfc362dba *gd80-09-27d2t09.flac
fd2c79b5a398b613335be678e9e4538f *gd80-09-27d3t01.flac
da909dd8bd893417611bbd35a15c2485 *gd80-09-27d3t02.flac
7b9cb1e09a39edcb0103c606ca6602ac *gd80-09-27d3t03.flac
a1bacb3541d97bb1cff8d5ab314c97f0 *gd80-09-27d3t04.flac
4113800ea8171070d7ca3998bf684b0e *gd80-09-27d3t05.flac
d0cab7d07382728c8a4cfa2a18cda18b *gd80-09-27d3t06.flac
a007318e86a4fc1938ca9f2cbdda8578 *gd80-09-27d3t07.flac
27f0ede5d4d42c682ae3bba1c1ad6859 *gd80-09-27d3t08.flac
b439139cf9514ce469ce2c9238fdd07f *gd80-09-27d3t09.flac

Comments
Add Comment
Other Sources (comments)
Recording (attributed to... (0) acoustic and electric; AUD>... (0) Acoustic set: Master... (3) flac16; Source:... (0)
Date User Comment