Browse Collections Artists Sources   Search Dates

Add Show    List Management    Help


Grateful Dead 09/15/90
Madison Square Garden, New York, NY
Comments Add Comment    Source Collectors    Add to Collection    Add to Want List    History
Source # 89070 Other Sources
Entered by Matt Vernon
Checksums ffp , flac-md5
Disc Counts 2 / 3
Media Size
Date Circulated
Date Added
12/15/2007
12/15/2007
Source Summary flac16; Recording Info: SBD -> Dat -> Cassette Master (TDK SA-X90) Transfer Info: Cassette Master (Nakamichi DR-1) -> Sound Devices 744T (24bit/48k) -> Samplitude Professional v9.12 -> FLAC/16 All Transfers and Mastering By Charlie Miller 
  Archive
Source Information - Download Text | Download Zip
Grateful Dead - September 15, 1990
Madison Square Garden - New York, NY

Recording Info:
SBD -> Dat -> Cassette Master (TDK SA-X90)

Transfer Info:
Cassette Master (Nakamichi DR-1) -> Sound Devices 744T (24bit/48k) ->
Samplitude Professional v9.12 -> FLAC/16
(3 Discs Audio / 2 Discs FLAC)

All Transfers and Mastering By Charlie Miller
[email protected]
December 14, 2007

Notes:
-- Set 2 is seamless
-- Two different SBD Cassette Masters were used to make this show complete
-- Bruce Hornsby's first show as a member of the Grateful Dead

Set 1:
d1t01 - Touch Of Grey ->
d1t02 - Walkin' Blues
d1t03 - Candyman
d1t04 - Mama Tried ->
d1t05 - Mexicali Blues
d1t06 - West L.A. Fadeaway
d1t07 - When I Paint My Masterpiece
d1t08 - Bird Song
d1t09 - Box Of Rain

Set 2:
d2t01 - The Weight
d2t02 - Playing In The Band ->
d2t03 - Crazy Fingers ->
d2t04 - Uncle John's Band ->
d2t05 - Drums ->
d3t01 - Space ->
d3t02 - Gimme Some Lovin' ->
d3t03 - All Along The Watchtower ->
d3t04 - Stella Blue ->
d3t05 - Throwing Stones ->
d3t06 - Not Fade Away

Encore:
d3t07 - One More Saturday Night


SHNTOOL OUTPUT:
    length     expanded size   cdr  WAVE problems filename
     6:26.08       68109260    ---   --   -----   gd90-09-15d1t01.wav
     6:37.63       70179020    ---   --   -----   gd90-09-15d1t02.wav
     8:05.38       85643420    ---   --   -----   gd90-09-15d1t03.wav
     2:37.52       27817148    ---   --   -----   gd90-09-15d1t04.wav
     5:17.71       56085836    ---   --   -----   gd90-09-15d1t05.wav
     8:41.10       91927964    ---   --   -----   gd90-09-15d1t06.wav
     5:31.70       58553084    ---   --   -----   gd90-09-15d1t07.wav
    14:30.00      153468044    ---   --   -----   gd90-09-15d1t08.wav
     5:02.07       53289308    ---   --   -----   gd90-09-15d1t09.wav
     6:53.23       72907340    ---   --   -----   gd90-09-15d2t01.wav
     8:49.07       93332108    ---   --   -----   gd90-09-15d2t02.wav
     9:22.19       99181532    ---   --   -----   gd90-09-15d2t03.wav
     9:30.06      100562156    ---   --   -----   gd90-09-15d2t04.wav
    12:58.67      137396828    ---   --   -----   gd90-09-15d2t05.wav
    11:20.07      119968508    ---   --   -----   gd90-09-15d3t01.wav
     5:51.05       61928204    ---   --   -----   gd90-09-15d3t02.wav
     6:26.42       68189228    ---   --   -----   gd90-09-15d3t03.wav
    10:06.45      107004284    ---   --   -----   gd90-09-15d3t04.wav
     9:41.40      102582524    ---   --   -----   gd90-09-15d3t05.wav
    11:01.04      116609852    ---   --   -----   gd90-09-15d3t06.wav
     5:30.08       58230860    ---   --   -----   gd90-09-15d3t07.wav
   170:20.67     1802966508 B                     (totals for 21 files)
Show Checksums
ffp
gd90-09-15d1t01.flac:442aff894085ca7570d8e489bbdba120
gd90-09-15d1t02.flac:27577152c1fb36fb8143a030cd3333a7
gd90-09-15d1t03.flac:b3cc2ec8aacf32921e163a8c1910c71c
gd90-09-15d1t04.flac:8d628de68545c40beb90aecadd737bcd
gd90-09-15d1t05.flac:14ddfb283aa6f3a0cd14ec292f0ea1cc
gd90-09-15d1t06.flac:90189fb6e606f2f06a9ac1a838fb9aac
gd90-09-15d1t07.flac:73a976abbd3bec48b14da558a3aaa23b
gd90-09-15d1t08.flac:3384f64be1e3675af9149d155bb0de25
gd90-09-15d1t09.flac:ffe9cf257f40024dc7880b6aac5a7a15
gd90-09-15d2t01.flac:0c5620bc01dc6e8947cc5857465f94c4
gd90-09-15d2t02.flac:850f689d950287d8df5b142f74ab22c4
gd90-09-15d2t03.flac:0b28c9fd680ca42b3b55554626dd79a5
gd90-09-15d2t04.flac:988a13eba45b1ec1b08f8411da6fc728
gd90-09-15d2t05.flac:0c6532769a1d6db9b0e0ac4e4057653c
gd90-09-15d3t01.flac:cd77608f73b80eb3fbbdd8533cefe1ab
gd90-09-15d3t02.flac:902471b2a3ecc3818dccca5a61f40121
gd90-09-15d3t03.flac:4fc38f6d64e13b96bdf6a2ae0cf0c86e
gd90-09-15d3t04.flac:e04e2b26cb98a7e92c95fe8b3d1e06d4
gd90-09-15d3t05.flac:7b613f396d3149919fc24f357299645a
gd90-09-15d3t06.flac:fef2d058f3bab00342ced6b946fe55f0
gd90-09-15d3t07.flac:4b36388af24bce1a13377db4d10318e7
flac-md5
1d9579f8646878397a3332b74b3c5b8a *gd90-09-15d1t01.flac
878d64ef9daa0bd13441754909d7f654 *gd90-09-15d1t02.flac
2b7135b4197bdcfb72bb47a23df09118 *gd90-09-15d1t03.flac
a6440c7c6d47abb519cbda0aabfc4696 *gd90-09-15d1t04.flac
7ed0c8cfd94fca070cb57fd73aacf90b *gd90-09-15d1t05.flac
4a182319190704a880ab3984c931a7cb *gd90-09-15d1t06.flac
119de252abb10b3ab77f72763948567b *gd90-09-15d1t07.flac
a732662153400643a1feda8678db9edf *gd90-09-15d1t08.flac
34f73f2b84ff1c34ba250c5eec69c59c *gd90-09-15d1t09.flac
1a723b450c4b23cc8c38a7a83f3d22fb *gd90-09-15d2t01.flac
fb9fec94d61305330e95504b72aba83e *gd90-09-15d2t02.flac
60fac125062f4dcc2ca2dce1e3e589cf *gd90-09-15d2t03.flac
a06a4cb85b34c10924df72773b517035 *gd90-09-15d2t04.flac
f6ebe6e4a478bf476c07160a0e5fdfc7 *gd90-09-15d2t05.flac
9b02cc2bf77a783580a211fa4ba94b97 *gd90-09-15d3t01.flac
e23253a402552607e716065a82077da3 *gd90-09-15d3t02.flac
06ddd130db59e067ae2d3436de377627 *gd90-09-15d3t03.flac
a1e73325cbdfcb0484e91a0889506e56 *gd90-09-15d3t04.flac
5061baa1a3415772b5b3a2aaf3ac403b *gd90-09-15d3t05.flac
15a6f0cd75a4be4eed715892db56aa24 *gd90-09-15d3t06.flac
f64c4f54ae63863732342b67791e6b92 *gd90-09-15d3t07.flac

Comments
Add Comment
Other Sources (comments)
DSBD> Sony SDT-9000> VDAT>... (4) analog sbd>dat>cd>eac>cd;... (1) Recorded by Dave Brotman:... (4) flac16; source: dsbd... (2) flac16; SBD -> Dat... (0) flac16; Ambient... (1) flac16; Sennheiser... (0) flac16; OTS AUD:... (0) flac16; matrix of... (0) flac16; Master... (0) flac24; Master... (0) flac16; Master... (0) flac24; Master... (0) flac16/48kHz; Master... (0)
Date User Comment