Browse Collections Artists Sources   Search Dates

Add Show    List Management    Help


New Riders of the Purple Sage 08/06/71
Hollywood Palladium, Hollywood, CA
Comments Add Comment    Source Collectors    Add to Collection    Add to Want List    History
Source # 89079 Other Sources
Entered by Scott
Checksums md5 , ffp
Disc Counts 2 / 3
Media Size
Date Circulated
Date Added
12/14/2007
12/16/2007
Source Summary (FOB) Sony ECM-22P -> Master Reel -> Reel -> Dat -> CD -> Samplitude Professional v9.12 -> Cool Edit Pro v2.0 -> FLAC
All Transfers and Mastering By Charlie Miller 
Source Information - Download Text | Download Zip
New Riders Of The Purple Sage - August 6, 1971
Hollywood Palladium - Hollywood, CA

Recording Info:
(FOB) Sony ECM-22P -> Master Reel -> Reel -> Dat -> CD

Transfer Info:
CD -> Samplitude Professional v9.12 -> Cool Edit Pro v2.0 -> FLAC
(2 Discs Audio / 1 Disc FLAC)

All Transfers and Mastering By Charlie Miller
[email protected]
December 11, 2007

Notes:
-- Disc change is seamless
-- Recorded By Harvey Kaslow and Craig Todd
-- Thanks to Joe B. Jones for his help with the pitch correction
-- Missing Honky Tonk Woman

Setlist:
d1t01 - Six Days On The Road
d1t02 - Watcha Gonna Do?
d1t03 - I Don't Know You
d1t04 - Down In The Boondocks
d1t05 - Portland Women
d1t06 - Dirty Business
d1t07 - Henry
d1t08 - Sailin'
d1t09 - Glendale Train
d1t10 - Workingman's Blues
d1t11 - Julie
d1t12 - Only Daddy That'll Walk the Line
d1t13 - Fair Chance To Know
d1t14 - The Weight
d1t15 - Louisiana Lady
d2t01 - Last Lonely Eagle
d2t02 - Sweet Lovin' One
xxxxx - Honky Tonk Women (MISSING)


SHNTOOL OUTPUT:
  length     expanded size   cdr  WAVE problems filename
     3:48.40       40313324    ---   --   -----   nrps1971-08-06d1t01.wav
     4:11.51       44396396    ---   --   -----   nrps1971-08-06d1t02.wav
     5:06.28       54044300    ---   --   -----   nrps1971-08-06d1t03.wav
     3:32.06       37410956    ---   --   -----   nrps1971-08-06d1t04.wav
     7:21.34       77872412    ---   --   -----   nrps1971-08-06d1t05.wav
    10:58.52      116193548    ---   --   -----   nrps1971-08-06d1t06.wav
     4:45.37       50361068    ---   --   -----   nrps1971-08-06d1t07.wav
     4:15.49       45097292    ---   --   -----   nrps1971-08-06d1t08.wav
     6:38.24       70263692    ---   --   -----   nrps1971-08-06d1t09.wav
     4:36.27       48749948    ---   --   -----   nrps1971-08-06d1t10.wav
     4:44.64       50248172    ---   --   -----   nrps1971-08-06d1t11.wav
     2:37.01       27697196    ---   --   -----   nrps1971-08-06d1t12.wav
     4:29.20       47498684    ---   --   -----   nrps1971-08-06d1t13.wav
     8:05.55       85683404    ---   --   -----   nrps1971-08-06d1t14.wav
     4:04.04       43051052    ---   --   -----   nrps1971-08-06d1t15.wav
     6:47.45       71900684    ---   --   -----   nrps1971-08-06d2t01.wav
     4:04.48       43154540    ---   --   -----   nrps1971-08-06d2t02.wav
    90:07.60      953936668 B                     (totals for 17 files)
Show Checksums
md5
9a3aabccea19374b9a80429e8042105f *nrps1971-08-06d1t01.flac
651d08ce2ebc30a4e1ee4ed3f447d1e4 *nrps1971-08-06d1t02.flac
bf15f4185a7ef87fd0d8874592089ef6 *nrps1971-08-06d1t03.flac
1ab42fe42684806c9753efbaba192d1d *nrps1971-08-06d1t04.flac
02bf63a20bfdef16237ec32c7515145a *nrps1971-08-06d1t05.flac
3386530e0c375effde97890083c63061 *nrps1971-08-06d1t06.flac
f04d604e83aef75954dba0719cd5d296 *nrps1971-08-06d1t07.flac
1a9ff6a8b0e2fdfe23024ad0b8853473 *nrps1971-08-06d1t08.flac
3f003e2aae430555640ee1b33c65b569 *nrps1971-08-06d1t09.flac
d9d00aa279328e663e89518c95ded1f8 *nrps1971-08-06d1t10.flac
e54fa852aeea0c0c31b1caa39d719500 *nrps1971-08-06d1t11.flac
bbee7fec1f3dc532a3c4441f1a02e9a1 *nrps1971-08-06d1t12.flac
a55c9e382644c373acefde1483bbc919 *nrps1971-08-06d1t13.flac
f27b03e8765172fac98466f75462a99c *nrps1971-08-06d1t14.flac
ed76706b20b927f715c1c9d5c5ba51c4 *nrps1971-08-06d1t15.flac
f50e2cb5220a7ee8c1c2700a41b99fa8 *nrps1971-08-06d2t01.flac
408cc91fb5d3be508af4de8b86ac2740 *nrps1971-08-06d2t02.flac
ffp
nrps1971-08-06d1t01.flac:15c21650bab2210569f9f482598769fd
nrps1971-08-06d1t02.flac:c362dd6fd79db66203b9fa81a72de22d
nrps1971-08-06d1t03.flac:0f5a69d5ffd77eb91b9e7084b6944fad
nrps1971-08-06d1t04.flac:2158f76621c39b68829cd1970f0ffc10
nrps1971-08-06d1t05.flac:b6ebb63afe0e55fba96ec68302e9b221
nrps1971-08-06d1t06.flac:258d2db36eaf9f9bd4dfa41477c2ac4e
nrps1971-08-06d1t07.flac:7f1e49c7200dd41ded1aac62ff72e2cd
nrps1971-08-06d1t08.flac:f96997296a4bd18ac7b766f23fe3281c
nrps1971-08-06d1t09.flac:4f92c1c65660b69ccaa197fec4dc0d8a
nrps1971-08-06d1t10.flac:b00b158c8935da0b16b403ade75860ec
nrps1971-08-06d1t11.flac:108f069ff8bb7b01b3ae8ef31b574050
nrps1971-08-06d1t12.flac:590efe09e38f5a42d218acf398781097
nrps1971-08-06d1t13.flac:b2d2d165866789b4170833184245b0dd
nrps1971-08-06d1t14.flac:4acb69192e23ff5dc43f5c05bc12c7ab
nrps1971-08-06d1t15.flac:60800f7334ef5bbb9156f3f5143a2625
nrps1971-08-06d2t01.flac:d0a0de97e6b19bdb0de676f3c20d8c7e
nrps1971-08-06d2t02.flac:46a8f28b100ae6992138590d2b444d91

Comments
Add Comment
Other Sources (comments)
MAR> R > DAT > CD > EAC >... (0) MAR> R > DAT > CD > EAC >... (0) source: aud 1st gen reels (0)
Date User Comment