Browse Collections Artists Sources   Search Dates

Add Show    List Management    Help


Grateful Dead 08/23/80
Alpine Valley Music Theatre, East Troy, WI
Comments Add Comment    Source Collectors    Add to Collection    Add to Want List    History
Source # 89130 Other Sources
Entered by Gary Field
Checksums ffp , flac-md5
Disc Counts 2 / 2
Media Size
Date Circulated
Date Added
12/19/2007
12/19/2007
Source Summary flac16; Recording Info: Unknown Mics -> Cassette Master -> Cassette Transfer Info: Cassette (Nakamichi DR-1) -> Sound Devices 744T (24bit/96k) -> Samplitude Professional v10 -> FLAC/16 All Transfers and Mastering By Charlie Miller 
  Archive
Source Information - Download Text | Download Zip
Grateful Dead - August 23, 1980
Alpine Valley Music Theatre - East Troy, WI

Recording Info:
Unknown Mics -> Cassette Master -> Cassette

Transfer Info:
Cassette (Nakamichi DR-1) -> Sound Devices 744T (24bit/96k) ->
Samplitude Professional v10 -> FLAC/16
(2 Discs Audio / 2 Discs FLAC)

All Transfers and Mastering By Charlie Miller
[email protected]
December 18, 2007

Patch Info:
Unknown Mics -> Cassette Master -> ? -> CD (shnid=11928) supplies:
Drums (7:51 - 7:58)

Notes:
-- Disc change is seamless
-- Thanks to Joani Walker and Paul Scotton for the tapes
-- Far from great but still better than other circulating source

Set 1:
d1t01 - Tuning
d1t02 - Alabama Getaway ->
d1t03 - The Promised Land
d1t04 - Candyman
d1t05 - Me And My Uncle ->
d1t06 - Big River
d1t07 - Tennessee Jed
d1t08 - Lazy Lightnin' ->
d1t09 - Supplication
d1t10 - Althea
d1t11 - The Music Never Stopped

Set 2:
d1t12 - Tuning
d1t13 - Don't Ease Me In
d2t01 - Lost Sailor ->
d2t02 - Saint Of Circumstance ->
d2t03 - He's Gone ->
d2t04 - Drums ->
d2t05 - Space ->
d2t06 - Wharf Rat ->
d2t07 - Around And Around ->
d2t08 - Good Lovin'

Encore:
d2t09 - One More Saturday Night


SHNTOOL OUTPUT:
    length     expanded size   cdr  WAVE problems filename
     0:39.62        7025468    ---   --   -----   gd80-08-23d1t01.wav
     5:05.04       53811452    ---   --   -----   gd80-08-23d1t02.wav
     5:18.19       56139932    ---   --   -----   gd80-08-23d1t03.wav
     9:10.35       97102364    ---   --   -----   gd80-08-23d1t04.wav
     3:06.23       32864540    ---   --   -----   gd80-08-23d1t05.wav
     6:04.18       64251980    ---   --   -----   gd80-08-23d1t06.wav
     8:57.19       94771532    ---   --   -----   gd80-08-23d1t07.wav
     3:24.40       36079724    ---   --   -----   gd80-08-23d1t08.wav
     6:49.72       72316988    ---   --   -----   gd80-08-23d1t09.wav
     9:06.51       96434396    ---   --   -----   gd80-08-23d1t10.wav
     8:11.16       86650076    ---   --   -----   gd80-08-23d1t11.wav
     1:21.48       14401340    ---   --   -----   gd80-08-23d1t12.wav
     4:08.50       43864844    ---   --   -----   gd80-08-23d1t13.wav
     6:27.50       68384444    ---   --   -----   gd80-08-23d2t01.wav
     6:02.23       63910940    ---   --   -----   gd80-08-23d2t02.wav
    21:00.20      222311084    ---   --   -----   gd80-08-23d2t03.wav
    10:21.44      109647932    ---   --   -----   gd80-08-23d2t04.wav
     5:32.32       58640108    ---   --   -----   gd80-08-23d2t05.wav
    10:21.32      109619708    ---   --   -----   gd80-08-23d2t06.wav
     4:13.51       44749196    ---   --   -----   gd80-08-23d2t07.wav
     8:45.03       92617100    ---   --   -----   gd80-08-23d2t08.wav
     4:36.29       48754652    ---   --   -----   gd80-08-23d2t09.wav
   148:44.66     1574349800 B                     (totals for 22 files)
Show Checksums
ffp
gd80-08-23d1t01.flac:17a9352b131ebbe61ddb32b960bfd2c9
gd80-08-23d1t02.flac:eb79ef0bd80900f845f30ee9ae0c05a4
gd80-08-23d1t03.flac:01ae07ccf0599097eed2d4771746979c
gd80-08-23d1t04.flac:a7d947477611789689f75f42a62d99dc
gd80-08-23d1t05.flac:2292b4309e05daa35f7dadcc1f63bd69
gd80-08-23d1t06.flac:f7a36b2c37e7e61907dba66b0093979f
gd80-08-23d1t07.flac:8ccb46c39adb06386da2f5a10f1f4a55
gd80-08-23d1t08.flac:1c0b90a48fb84e1717599e989ab46987
gd80-08-23d1t09.flac:5cdd2d9b9884e7856f3353edea06f012
gd80-08-23d1t10.flac:dbbf0b70aae72e7d4e7ca3971ae45c57
gd80-08-23d1t11.flac:2ca7b170eb3d317ff0e0b809d66ddd79
gd80-08-23d1t12.flac:e1258fcda14cdf7ec2ed3d217547d456
gd80-08-23d1t13.flac:6d114e325e88a797568a5c6f9b766dba
gd80-08-23d2t01.flac:48d55907b2853c01d68bee2aef3f6089
gd80-08-23d2t02.flac:bd9c7709c335d5a894b136cf43b3aa63
gd80-08-23d2t03.flac:dc18294eb32d07da4d098c7a9dfceddb
gd80-08-23d2t04.flac:ac0c06731fd18c8b6722aebec71059c2
gd80-08-23d2t05.flac:9db650df8b9a42d441efcae91331cd3e
gd80-08-23d2t06.flac:3a8d426048f835e75b9ca8f41b8d0cd9
gd80-08-23d2t07.flac:8a27ee67a0dbce1626d15d14f3540e42
gd80-08-23d2t08.flac:1b4aa89607bd8fec40163e2484ec5676
gd80-08-23d2t09.flac:cb7657f6d04f79db9ebf1c8d54f75214
flac-md5
8f72f881310bc5c4ab4885062ef5d6f5 *gd80-08-23d1t01.flac
90e8157b605d73f54a06c39960c48ba4 *gd80-08-23d1t02.flac
0995e2a537b004aaaa785cb3118594af *gd80-08-23d1t03.flac
0ccf7daf1456bec906c9c08f170ab949 *gd80-08-23d1t04.flac
9d51be49c98fbfaa502c7f210ddb1496 *gd80-08-23d1t05.flac
178115404fd31bc555a6f87b2f40b3f7 *gd80-08-23d1t06.flac
3c9a0e4f6b9af3be0b1c424b3f27f618 *gd80-08-23d1t07.flac
2a05b12e5746683ddf156fc028e66079 *gd80-08-23d1t08.flac
82e26a4fc0f80f64e770ba0d255d1938 *gd80-08-23d1t09.flac
ec33313e13d1605845d771903ff7e1d9 *gd80-08-23d1t10.flac
398efb49470c5e6b5cd074af3879a17a *gd80-08-23d1t11.flac
139623da76fd59cb4905b74503db4200 *gd80-08-23d1t12.flac
98d9eab596d44c93161ad8247e5896a1 *gd80-08-23d1t13.flac
b1b7763c58f88ce137f475e9e4adec7e *gd80-08-23d2t01.flac
cf9134db4ae8d992a6ff6c1820274f3b *gd80-08-23d2t02.flac
49d36d436f5af42ea561a431ddec2b52 *gd80-08-23d2t03.flac
d09c7d60f2a85c813530c3dad5126530 *gd80-08-23d2t04.flac
7d89b84723e41da3b0d6c6d4357da51f *gd80-08-23d2t05.flac
c520f599549bcb8e51249614c0d395da *gd80-08-23d2t06.flac
2383948f843fb8ee6d5f84fcaf5fc40e *gd80-08-23d2t07.flac
99c8b745cc37043faa7cacf25132bce3 *gd80-08-23d2t08.flac
ed491dc6b68b5b3f2c8159d02368968d *gd80-08-23d2t09.flac

Comments
Add Comment
Other Sources (comments)
Unknown audience... (1)
Date User Comment