Browse Collections Artists Sources   Search Dates

Add Show    List Management    Help


Grateful Dead 12/10/79
Soldiers' and Sailors' Memorial Hall, Kansas City, KS
Comments Add Comment    Source Collectors    Add to Collection    Add to Want List    History
Source # 89136 Other Sources
Entered by Matt Vernon
Checksums ffp , flac-md5
Disc Counts 2 / 3
Media Size
Date Circulated
Date Added
12/19/2007
12/19/2007
Source Summary flac16; Recording by Joani Walker: (FOB) Sony ECM-250 -> Cassette Master (Sony TC-158/TDK SA-C90) Transfer Info: Cassette Master (Nakamichi DR-1) -> Sound Devices 744T (24bit/96k) -> Samplitude Professional v10 -> FLAC/16 All Transfers and Mastering By Charlie Miller 
  Archive
Source Information - Download Text | Download Zip
Grateful Dead - December 10, 1979
Soldiers & Sailors Memorial Hall - Kansas City, KS

Recording Info:
(FOB) Sony ECM-250 -> Cassette Master (Sony TC-158/TDK SA-C90)

Transfer Info:
Cassette Master (Nakamichi DR-1) -> Sound Devices 744T (24bit/96k) -> Samplitude Professional v10 -> FLAC/16
(3 Discs Audio / 2 Discs FLAC)

All Transfers and Mastering By Charlie Miller
[email protected]
December 19, 2007

Patch Info:
Nakamichi 700 -> Cassette Master -> Reel -> Cool Edit (shnid=77331) supplies:
He's Gone (0:03 - 0:16)
Space (0:00 - 0:20)

Notes:
-- Set 2 is seamless
-- Recorded by Joani Walker
-- Thanks to Paul Scotton and Joani Walker for the tapes
-- Vocals are a little distant but recording is still very nice

Set 1:
d1t01 - Tuning
d1t02 - Cold Rain And Snow ->
d1t03 - Greatest Story Ever Told
d1t04 - Peggy-O
d1t05 - Mama Tried ->
d1t06 - Mexicali Blues
d1t07 - Tennessee Jed
d1t08 - Dancing In The Street ->
d1t09 - Franklin's Tower ->
d1t10 - Looks Like Rain ->
d1t11 - Deal

Set 2:
d2t01 - Tuning
d2t02 - Scarlet Begonias ->
d2t03 - Fire On The Mountain
d2t04 - Easy To Love You ->
d2t05 - Let It Grow ->
d2t06 - He's Gone ->
d2t07 - Truckin' ->
d2t08 - Drums ->
d3t01 - Space ->
d3t02 - Wharf Rat ->
d3t03 - Johnny B. Goode

Encore:
d3t04 - U.S. Blues


SHNTOOL OUTPUT:
    length     expanded size   cdr  WAVE problems filename
     2:58.72       31568588    ---   --   -----   gd79-12-10d1t01.wav
     6:16.23       66380540    ---   --   -----   gd79-12-10d1t02.wav
     4:46.48       50563340    ---   --   -----   gd79-12-10d1t03.wav
     6:33.17       69365228    ---   --   -----   gd79-12-10d1t04.wav
     2:35.35       27424364    ---   --   -----   gd79-12-10d1t05.wav
     5:17.56       56050556    ---   --   -----   gd79-12-10d1t06.wav
     8:47.01       92965196    ---   --   -----   gd79-12-10d1t07.wav
     9:58.28      105553100    ---   --   -----   gd79-12-10d1t08.wav
    10:52.34      115092812    ---   --   -----   gd79-12-10d1t09.wav
     8:26.03       89265500    ---   --   -----   gd79-12-10d1t10.wav
     4:38.04       49048652    ---   --   -----   gd79-12-10d1t11.wav
     1:00.48       10696940    ---   --   -----   gd79-12-10d2t01.wav
    10:10.72      107773388    ---   --   -----   gd79-12-10d2t02.wav
    13:29.55      142837004    ---   --   -----   gd79-12-10d2t03.wav
     3:31.19       37265132    ---   --   -----   gd79-12-10d2t04.wav
    10:11.48      107893340    ---   --   -----   gd79-12-10d2t05.wav
    11:49.62      125213468    ---   --   -----   gd79-12-10d2t06.wav
     8:36.11       91048316    ---   --   -----   gd79-12-10d2t07.wav
     7:56.25       84025244    ---   --   -----   gd79-12-10d2t08.wav
     2:12.64       23435372    ---   --   -----   gd79-12-10d3t01.wav
     9:57.35      105393164    ---   --   -----   gd79-12-10d3t02.wav
     4:38.61       49182716    ---   --   -----   gd79-12-10d3t03.wav
     5:31.15       58423724    ---   --   -----   gd79-12-10d3t04.wav
   160:17.11     1696465684 B                     (totals for 23 files)
Show Checksums
ffp
gd79-12-10d1t01.flac:d84c66dd1c8a60e565eea6242f56375c
gd79-12-10d1t02.flac:fe11075ff6127366e36362d65ff0cd4e
gd79-12-10d1t03.flac:98d954eb248d19631b3d11b1feef99f8
gd79-12-10d1t04.flac:e3eae3fd8184cc71d3e4db63b8ca32e6
gd79-12-10d1t05.flac:264b613a4512adc7bc5febb5dafa7c85
gd79-12-10d1t06.flac:15025c588d6cf4ce9db63782f1913f8a
gd79-12-10d1t07.flac:36b1398d99ceb5752ec49b9777efd525
gd79-12-10d1t08.flac:818831c5ccb1869611fce015c771d03d
gd79-12-10d1t09.flac:0acb4755e281c5047388150f1d7f6c2c
gd79-12-10d1t10.flac:20c9ba4784970ab9d9c21d8985a3f0e0
gd79-12-10d1t11.flac:4aac61a2a0e366a491a86a6233ead665
gd79-12-10d2t01.flac:da0dd6e67497c053637efe5ba7fea8ff
gd79-12-10d2t02.flac:a25013b96d26e78b4da3b0f2ba8c59aa
gd79-12-10d2t03.flac:017dd4763be864c46c5f4fd86179ae07
gd79-12-10d2t04.flac:f4263749fe4ae7e7573a2629ab469147
gd79-12-10d2t05.flac:634da6ba6174a7d545221a40afd1db54
gd79-12-10d2t06.flac:fe02e680feec20e2b161e0a5d2d761f6
gd79-12-10d2t07.flac:71ce70fccdc913e7adb814026ed1dec2
gd79-12-10d2t08.flac:a3a915afe140f213fe4d11aee27aaaf5
gd79-12-10d3t01.flac:bfbe7e6725fd242b7759b243c8b52348
gd79-12-10d3t02.flac:09b64b988edd9475c66c54c32615cb2e
gd79-12-10d3t03.flac:43bcf827beb30f78583ae742438c89dc
gd79-12-10d3t04.flac:68a78e696f992177b36b68fa737ba169
flac-md5
641a398ca2841f9de899dbcdb46f02d6 *gd79-12-10d1t01.flac
527888f1044ea419a2b19edddddd7069 *gd79-12-10d1t02.flac
f3628dfc7e0edf94095bee678cc286a3 *gd79-12-10d1t03.flac
c744e3af78eb8401084abb2db9993b13 *gd79-12-10d1t04.flac
500c8c5dc18bf51e4f294edeb5fcba81 *gd79-12-10d1t05.flac
0e84171cd4c1f5a5d31b5120b2d9c47d *gd79-12-10d1t06.flac
fa8b5f5389e247ba1ae0dbc9bec2602d *gd79-12-10d1t07.flac
47e3ab68a4ab886a08954834e2acba61 *gd79-12-10d1t08.flac
18d4b19e8f03c2c8c8e303b05b68a01d *gd79-12-10d1t09.flac
505efbba67456d4570a3ba9fe8ab5b13 *gd79-12-10d1t10.flac
07cc8d82517ad828886456809a2ad6ae *gd79-12-10d1t11.flac
2b60b9ce27e872de0f13ce739916b694 *gd79-12-10d2t01.flac
95b79fd7b3376e4e19b34c91e4ead095 *gd79-12-10d2t02.flac
4558f72e5fb9f62c53bcb11c42011fbe *gd79-12-10d2t03.flac
cd6b03f9f261c7b7aed697a3f19585de *gd79-12-10d2t04.flac
74ed7ab7efe1bc3093ada2e6a0107e2b *gd79-12-10d2t05.flac
bca74d7f35fac84c8ee80107b914a146 *gd79-12-10d2t06.flac
951cb792c1159fe57f6b54d10f40d2cc *gd79-12-10d2t07.flac
a84a3f01b1bb7079977438b28ce43f13 *gd79-12-10d2t08.flac
a9464b9777c83700c1533bab4c5f80f2 *gd79-12-10d3t01.flac
4fd909de1d6bea17c549c3faab2e071c *gd79-12-10d3t02.flac
f3e76acbf17bb0136a7a4caeb186f21e *gd79-12-10d3t03.flac
a9b442e3d1d653885c621433ada69dd4 *gd79-12-10d3t04.flac

Comments
Add Comment
Other Sources (comments)
SBD> Cm> (set 1 = Reel, set... (2) flac16; Set 1... (1) flac16; AUD of... (0) flac16; Source:... (0) flac16; 2 Source... (0) flac16; Recorded By... (0)
Date User Comment
04/19/2020 kgilbert Beautiful recording, just wonderful. Thank you