Browse Collections Artists Sources   Search Dates

Add Show    List Management    Help


Grateful Dead 10/06/80
Warfield Theater, San Francisco, CA
Comments Add Comment    Source Collectors    Add to Collection    Add to Want List    History
Source # 89169 Other Sources
Entered by Matt Vernon
Checksums ffp , flac-md5
Disc Counts 2 / 3
Media Size
Date Circulated
Date Added
12/20/2007
12/20/2007
Source Summary flac16; Recording by Ron Ellner: Source: Master Cassette > Nakamichi 700s > Sony TC D-5. Location: FOB either on the floor or 1st row balcony. 1st Generation copy to Teac Reel to Reel. Transfer: Pioneer RT-701 Reel to Reel > Soundblaster Soundcard > Soundforge > CD. CD Extraction with EAC > TLH > FLAC level 8. Recorded and archived to Reels by Ron Ellner, the master cassettes were stolen. Transfer: Reels to PC by Mike Marino. CD Extraction and seeded by Bill Koucky; Green Mountain Bros. December 2007. 
  Archive
Source Information - Download Text | Download Zip
Grateful Dead
Warfield Theater
San Francisco, CA
October 6, 1980

Source: Master Cassette > Nakamichi 700s > Sony TC D-5
Location: FOB either on the floor or 1st row balcony
1st Generation copy to Teac Reel to Reel
Transfer: Pioneer RT-701 Reel to Reel > Soundblaster Soundcard > Soundforge > CD
CD Extraction with EAC > TLH > FLAC level 8
Recorded and archived to Reels by Ron Ellner, the master cassettes were stolen.
Transfer: Reels to PC by Mike Marino
CD Extraction and seeded by Bill Koucky
Green Mountain Bros. December 2007

Disc 1          46:13

Acoustic Set:

1. Dire Wolf
2. Cassidy
3. Jack-A-Roe
4. Monkey & The Engineer
5. I�ve Been All Around This World
6. Heaven Help The Fool
7. China Doll
8. On The Road Again
9. Bird Song >
10. Ripple


Disc 2          74:54

1st Electric Set:

1. China Cat Sunflower >
2. In Know You Rider >
3. Minglewood Blues
4. They Love Each Other
5. Beat It On Down The Line
6. Peggy-O
7. Lazy Lightning > Supplication
8. Brown Eyed Women
9. Looks Like Rain
10. Deal

2nd Electric Set:
11. Samson & Delilah
12. It Must Have Been The Roses >

Disc 3          78:01

2nd Electric Set cont:

1. Lost Sailor >
2. Saint Of Circumstance >
3. Terrapin >
4. Drums >
5. Space >
6. Truckin' >
7. The Other One >
8. Black Peter >
9. Sugar Magnolia >
10. Johnny B. Goode

Encore Missing
[US Blues]

Note: Disc 2 fades out as Lost Sailor begins; Disc 3 fades in as Roses ends.


SHNTOOL OUTPUT:
    length     expanded size   cdr  WAVE problems filename
     3:34.49       37864892    ---   --   ---xx   gd1980-10-06d1t01.flac
     4:51.49       51447692    ---   --   ---xx   gd1980-10-06d1t02.flac
     4:16.54       45285452    ---   --   ---xx   gd1980-10-06d1t03.flac
     2:42.34       28656812    ---   --   ---xx   gd1980-10-06d1t04.flac
     3:47.00       40042844    ---   --   ---xx   gd1980-10-06d1t05.flac
     6:15.46       66258236    ---   --   ---xx   gd1980-10-06d1t06.flac
     5:10.31       54756956    ---   --   ---xx   gd1980-10-06d1t07.flac
     3:19.38       35193020    ---   --   ---xx   gd1980-10-06d1t08.flac
     8:00.29       84740252    ---   --   ---xx   gd1980-10-06d1t09.flac
     4:14.58       44942060    ---   --   ---xx   gd1980-10-06d1t10.flac
     5:15.67       55723628    ---   --   ---xx   gd1980-10-06d2t01.flac
     4:59.06       52757756    ---   --   ---xx   gd1980-10-06d2t02.flac
     7:03.20       74664284    ---   --   ---xx   gd1980-10-06d2t03.flac
     6:53.17       72893228    ---   --   ---xx   gd1980-10-06d2t04.flac
     3:16.34       34654412    ---   --   ---xx   gd1980-10-06d2t05.flac
     6:14.44       66077132    ---   --   ---xx   gd1980-10-06d2t06.flac
     8:11.46       86720636    ---   --   ---xx   gd1980-10-06d2t07.flac
     4:50.68       51315980    ---   --   ---xx   gd1980-10-06d2t08.flac
     8:00.22       84723788    ---   --   ---xx   gd1980-10-06d2t09.flac
     6:09.15       65126924    ---   --   ---xx   gd1980-10-06d2t10.flac
     7:29.41       79300076    ---   --   ---xx   gd1980-10-06d2t11.flac
     6:30.02       68800748    ---   --   ---xx   gd1980-10-06d2t12.flac
     6:13.19       65841932    ---   --   ---xx   gd1980-10-06d3t01.flac
     6:14.58       66110060    ---   --   ---xx   gd1980-10-06d3t02.flac
    11:18.37      119686268    ---   --   ---xx   gd1980-10-06d3t03.flac
    11:35.30      122668604    ---   --   ---xx   gd1980-10-06d3t04.flac
     9:33.54      101204252    ---   --   ---xx   gd1980-10-06d3t05.flac
     8:26.22       89310188    ---   --   ---xx   gd1980-10-06d3t06.flac
     5:33.61       58884716    ---   --   ---xx   gd1980-10-06d3t07.flac
     9:17.14       98287772    ---   --   ---xx   gd1980-10-06d3t08.flac
     5:24.12       57181868    ---   --   ---xx   gd1980-10-06d3t09.flac
     4:24.19       46614332    ---   --   ---xx   gd1980-10-06d3t10.flac
   199:08.46     2107736800 B                     (totals for 32 files, 0.5937 overall compression ratio)
Show Checksums
ffp
gd1980-10-06d1t01.flac:ead71b549c4279ea6116fba7df3193e4
gd1980-10-06d1t02.flac:1cdd373348ab7dc905452df853ac84be
gd1980-10-06d1t03.flac:2c7d8ee30b23ffa04fba99b4240e3055
gd1980-10-06d1t04.flac:12f0b9f447f708133e3b9f567918863b
gd1980-10-06d1t05.flac:d02a6e6e95115dd18ce4bf131f47e93e
gd1980-10-06d1t06.flac:024eb7b70b658bcf4a77e374c597beae
gd1980-10-06d1t07.flac:509fa0915745b12bdff86142d30919e6
gd1980-10-06d1t08.flac:5115074db77338638b25c96aa034ce60
gd1980-10-06d1t09.flac:cc3e5ff8b8e9ccf721dc223e5b40b8f8
gd1980-10-06d1t10.flac:fbeacf1fb4b9d2e6aba7a930728e54cf
gd1980-10-06d2t01.flac:9103cd14f3bd35288367b53d4574fbe0
gd1980-10-06d2t02.flac:371fe04610dcb4680fd04cde11b1841b
gd1980-10-06d2t03.flac:54bee723303f4b0a1d5594e3ec6a7e6d
gd1980-10-06d2t04.flac:7c24926ccdd148f8d894a66eeef7b030
gd1980-10-06d2t05.flac:b103dfeec9ba61a0d79520cb7ed15cda
gd1980-10-06d2t06.flac:ff8ceae85654a0fa78c0906e5439a750
gd1980-10-06d2t07.flac:b687c9fc522ab36f3144c9e722d868fa
gd1980-10-06d2t08.flac:199a96f010d6fd804532645c65498fc5
gd1980-10-06d2t09.flac:3e3239f5cb2e4bbfc8b4954fa6022ebe
gd1980-10-06d2t10.flac:b73d181cbec4cc57b7f05f6a0c1b109d
gd1980-10-06d2t11.flac:93f158ac0e8ac3b96aca4a6f68976a29
gd1980-10-06d2t12.flac:1322f062f4670f923f44199cd8473c0d
gd1980-10-06d3t01.flac:7c60e5625a88ca601a9aff4f9c73261a
gd1980-10-06d3t02.flac:ad00a664fbc30973050763820872fcb9
gd1980-10-06d3t03.flac:150591ddb6286a32b668bbf1d3027089
gd1980-10-06d3t04.flac:39b9b823a871f9288770b676e12741f1
gd1980-10-06d3t05.flac:7e51642894d27109387784e4b2008927
gd1980-10-06d3t06.flac:76bbfb02be9bad7d70a051c4f5ec0c19
gd1980-10-06d3t07.flac:79308c6182bd9c6c8d1bb1f47721cc4c
gd1980-10-06d3t08.flac:947a74dd364623289ad939df22ce9852
gd1980-10-06d3t09.flac:81ce0911f70c19430a92170580d14387
gd1980-10-06d3t10.flac:e2e1f52f4aef1d75775499f15dc9221b
flac-md5
cff063b64e7bc3f04d107a6ad72812c0 *gd1980-10-06d1t01.flac
eadf971de75db5c152e3560ae8eee132 *gd1980-10-06d1t02.flac
06ccb71dcb07c80a7c884f3a832d997d *gd1980-10-06d1t03.flac
a2b844031643b0e06b9e8d81b915e149 *gd1980-10-06d1t04.flac
f7c1e80db9b8cc62fada7c34ded06064 *gd1980-10-06d1t05.flac
1263a7300dd8f697b6d49bc7288e8d90 *gd1980-10-06d1t06.flac
5e3e4f03079f6de2fbb9ecb34ed77cdb *gd1980-10-06d1t07.flac
68d59c2d3413d64e43094e0e81abe16f *gd1980-10-06d1t08.flac
6643edcb227f7c48ec1f221a0fb4b289 *gd1980-10-06d1t09.flac
2aa1398eaee7d7a00f35427a0a48bb34 *gd1980-10-06d1t10.flac
28bc8355c81bacf2b5efc527db02d24f *gd1980-10-06d2t01.flac
e476541293904c2f79e2eebde0f54392 *gd1980-10-06d2t02.flac
ff3c3fb5347e0937834cb0b6ed5c545f *gd1980-10-06d2t03.flac
f62313e5f41743e90acf685ee6f3c077 *gd1980-10-06d2t04.flac
8870a4b8cd274c29e2511ca98f12d2c3 *gd1980-10-06d2t05.flac
21ae45c7c66ec57ea74545d5dbb4c6be *gd1980-10-06d2t06.flac
90ea4b6c364e1360bf99063c4121de31 *gd1980-10-06d2t07.flac
a71026ad0fe0c8f8bc69eb3a61f94729 *gd1980-10-06d2t08.flac
bc317b199d17a89564bb680251b8c6a7 *gd1980-10-06d2t09.flac
c97801fedd7b792380b16c8c9895e667 *gd1980-10-06d2t10.flac
6f42aa00489c98686932fc0c8a4396d4 *gd1980-10-06d2t11.flac
34f177a27c3f0a67fa174a56ff855e45 *gd1980-10-06d2t12.flac
9a8f61194d5b8bf3a15d94c76a5438b9 *gd1980-10-06d3t01.flac
42048785022e9b2d859deb29a3f3e915 *gd1980-10-06d3t02.flac
779b8dd021496d6da98a28f91725f75e *gd1980-10-06d3t03.flac
320f2149e534337f7140f0abca5efa22 *gd1980-10-06d3t04.flac
44dee882a77e9fe2176b818946c75faf *gd1980-10-06d3t05.flac
f6843ab04250a1899e07c8819ad6b93a *gd1980-10-06d3t06.flac
c3126091a36241cbbae9c26116474df7 *gd1980-10-06d3t07.flac
e119c867300e90d9e246727f426ed9cc *gd1980-10-06d3t08.flac
f6ae4e05deb7f9aff67d87051aa44ffd *gd1980-10-06d3t09.flac
0f0750bd7882522d0b8f4939353b5e67 *gd1980-10-06d3t10.flac

Comments
Add Comment
Other Sources (comments)
Acoustic set only;... (0) Source: Recording... (1) flac16; Source Info:... (0)
Date User Comment