Browse Collections Artists Sources   Search Dates

Add Show    List Management    Help


Grateful Dead 12/26/79
Oakland Auditorium Arena, Oakland, CA
Comments Add Comment    Source Collectors    Add to Collection    Add to Want List    History
Source # 89187 Other Sources
Entered by Matt Vernon
Checksums ffp , flac-md5
Disc Counts 2 / 3
Media Size
Date Circulated
Date Added
12/21/2007
12/21/2007
Source Summary flac16; Recording by Joani Walker (Soundcheck by David Gans): Sony ECM-250 -> Cassette Master (Sony TC-158/Maxell UDXL-II90) Transfer Info: Cassette Master (Nakamichi DR-1) -> Sound Devices 744T (24bit/96k) -> Samplitude Professional v10 -> FLAC/16 All Transfers and Mastering By Charlie Miller 
  Archive
Source Information - Download Text | Download Zip
Grateful Dead - December 26, 1979
Oakland Auditorium - Oakland, CA

Recording Info:
Sony ECM-250 -> Cassette Master (Sony TC-158/Maxell UDXL-II90)

Transfer Info:
Cassette Master (Nakamichi DR-1) -> Sound Devices 744T (24bit/96k) ->
Samplitude Professional v10 -> FLAC/16
(3 Discs Audio / 2 Discs FLAC)

All Transfers and Mastering By Charlie Miller
[email protected]
December 20, 2007

Patch Info:
SBD -> Master Reel -> Dat -> CD supplies:
He's Gone (10:08 - 10:20)

Nakamichi 700 -> Cassette Master -> Dat -> CD (shnid=16092) supplies:
Space (1:08 - 1:23)

Sony Mics -> Cassette Master -> ? -> CD -> Samplitude supplies:
Complete Soundcheck

Notes:
-- Set 2 is seamless
-- Recorded By Joani Walker
-- Soundcheck recorded by David Gans
-- Thanks to Joani Walker and Paul Scotton for the tapes

Set 1:
d1t01 - Tuning
d1t02 - Cold Rain And Snow
d1t03 - C C Rider
d1t04 - Dire Wolf
d1t05 - Me And My Uncle ->
d1t06 - Big River
d1t07 - Brown Eyed Women
d1t08 - New Minglewood Blues
d1t09 - Friend Of The Devil
d1t10 - Looks Like Rain
d1t11 - Alabama Getaway ->
d1t12 - The Promised Land

Set 2:
d2t01 - Tuning
d2t02 - Uncle John's Band ->
d2t03 - Estimated Prophet ->
d2t04 - Caution Jam ->
d2t05 - He's Gone ->
d2t06 - The Other One ->
d2t07 - Drums ->
d3t01 - Space ->
d3t02 - Not Fade Away ->
d3t03 - Brokedown Palace ->
d3t04 - Around And Around ->
d3t05 - Johnny B. Goode

Encore:
d3t06 - Shakedown Street ->
d3t07 - Uncle John's Band

Soundcheck:
d3t08 - Wharf Rat
d3t09 - Brokedown Palace
d3t10 - Black Throated Wind
d3t11 - Minglewood Blues


SHNTOOL OUTPUT:
    length     expanded size   cdr  WAVE problems filename
     0:41.74        7406492    ---   --   -----   gd79-12-26d1t01.wav
     7:36.61       80581916    ---   --   -----   gd79-12-26d1t02.wav
     6:48.32       72046508    ---   --   -----   gd79-12-26d1t03.wav
     4:40.15       49427324    ---   --   -----   gd79-12-26d1t04.wav
     3:00.60       31893164    ---   --   -----   gd79-12-26d1t05.wav
     6:40.12       70588268    ---   --   -----   gd79-12-26d1t06.wav
     5:32.64       58715372    ---   --   -----   gd79-12-26d1t07.wav
     7:10.36       75936716    ---   --   -----   gd79-12-26d1t08.wav
     9:48.37      103810268    ---   --   -----   gd79-12-26d1t09.wav
     9:12.63       97521020    ---   --   -----   gd79-12-26d1t10.wav
     7:00.38       74177420    ---   --   -----   gd79-12-26d1t11.wav
     4:22.07       46233308    ---   --   -----   gd79-12-26d1t12.wav
     1:59.08       21010460    ---   --   -----   gd79-12-26d2t01.wav
    10:10.35      107686364    ---   --   -----   gd79-12-26d2t02.wav
    15:05.16      159679676    ---   --   -----   gd79-12-26d2t03.wav
     5:16.73       55914140    ---   --   -----   gd79-12-26d2t04.wav
    10:22.14      109753772    ---   --   -----   gd79-12-26d2t05.wav
     8:32.55       90446204    ---   --   -----   gd79-12-26d2t06.wav
    10:20.27      109431548    ---   --   -----   gd79-12-26d2t07.wav
     6:02.74       64030892    ---   --   -----   gd79-12-26d3t01.wav
    11:55.54      126253052    ---   --   -----   gd79-12-26d3t02.wav
     4:53.74       51859292    ---   --   -----   gd79-12-26d3t03.wav
     3:59.06       42173756    ---   --   -----   gd79-12-26d3t04.wav
     6:04.60       64350764    ---   --   -----   gd79-12-26d3t05.wav
    13:52.61      146908316    ---   --   -----   gd79-12-26d3t06.wav
     2:52.34       30420812    ---   --   -----   gd79-12-26d3t07.wav
     0:07.41        1331276    ---   --   -----   gd79-12-26d3t08.wav
     4:18.12       45539468    ---   --   -----   gd79-12-26d3t09.wav
     7:06.52       75268748    ---   --   -----   gd79-12-26d3t10.wav
     3:34.26       37810796    ---   --   -----   gd79-12-26d3t11.wav
   199:11.21     2108207112 B                     (totals for 30 files)
Show Checksums
ffp
gd79-12-26d1t01.flac:d409b97cf013b6dd4cf24b56c2fc7a57
gd79-12-26d1t02.flac:a697e04b3458d38fd428dd47213f1dc4
gd79-12-26d1t03.flac:f3c1fa2cf63561ddc86f9887b781499f
gd79-12-26d1t04.flac:808de1f01521d8c8b641e42bdc0bb169
gd79-12-26d1t05.flac:496c7b476da7f771f79504ff5b580585
gd79-12-26d1t06.flac:0f9d3b338779af48dc0859d3e9892724
gd79-12-26d1t07.flac:955d1268ffb5403b264502b4626a1c34
gd79-12-26d1t08.flac:ea38c4958cd3a9e424ae422e6df2e8aa
gd79-12-26d1t09.flac:547ddadffb242a72ca723e95bd914760
gd79-12-26d1t10.flac:fe2fa92b563bd30a3c992321fe8c36c3
gd79-12-26d1t11.flac:d1eb3a61b11f40c0692153e7bfbe8740
gd79-12-26d1t12.flac:8336534e366da6049ec898d3c02b3995
gd79-12-26d2t01.flac:dda53078e7a3a62d5a75bcc93e938e4a
gd79-12-26d2t02.flac:3530e5a565a3b261bfeac7e99dc6b3b4
gd79-12-26d2t03.flac:663654365f779498fa4652928b20bd58
gd79-12-26d2t04.flac:f1f91b25a022e1d32ac829ef597b0cc4
gd79-12-26d2t05.flac:a8c28ae6d4d0eea0c583c49f443c8004
gd79-12-26d2t06.flac:b36f6220eae58cc0dcbbeb87a29ffe51
gd79-12-26d2t07.flac:4720e9370b5b61b7d97beb21561dec35
gd79-12-26d3t01.flac:a9c97f646f40bffa0c2f0abed2b09b26
gd79-12-26d3t02.flac:9d4f998a60bb4d8d0d2ecf6b31121d71
gd79-12-26d3t03.flac:014527929ac7d843867932272bb41eb0
gd79-12-26d3t04.flac:4b8e924674eb3fd318cf8966e2647f64
gd79-12-26d3t05.flac:0557209a36599be7526ff3e553a03d34
gd79-12-26d3t06.flac:fb0c23ba5cf438c8cf7785b3f2f75489
gd79-12-26d3t07.flac:78839032e33b6d4f9610db407e4b1d63
gd79-12-26d3t08.flac:516e43b8517b7210cdc76c9544cd34c8
gd79-12-26d3t09.flac:7ea65ed62ebb65b2103d7517b28bfd75
gd79-12-26d3t10.flac:089a189cf02c5375c22f8a0eb49f823f
gd79-12-26d3t11.flac:293a4985aa19804a6767f5ca331cd3d3
flac-md5
67a6954d9bce908e4d757776185a3407 *gd79-12-26d1t01.flac
76f6a92a8496a107bb0ab7122b423b01 *gd79-12-26d1t02.flac
f55cc0cb493e47731d087b3eef49f878 *gd79-12-26d1t03.flac
9fef57f6b88abc08b73ca841e978c96e *gd79-12-26d1t04.flac
7845cde0ceeb0d05e01866edfa1c7b46 *gd79-12-26d1t05.flac
de28819bc119b42b0fd72966e137b5fc *gd79-12-26d1t06.flac
380859ecb9115e5402aaa6523df6dfc8 *gd79-12-26d1t07.flac
b8e64570a606b858e18bcbf41b122a17 *gd79-12-26d1t08.flac
a009bbae081b9f8dbe6e85916259310b *gd79-12-26d1t09.flac
011edd695fc12d3b404e38f3cc9faaa1 *gd79-12-26d1t10.flac
f0e118694bda01521b614ae3d535097b *gd79-12-26d1t11.flac
b0fb62848d94f3c3fb6d0a8072d99602 *gd79-12-26d1t12.flac
469d365397e3eacc8e5cd43aacfe7afd *gd79-12-26d2t01.flac
f10ae71cd7445eee681f13da3cbe0806 *gd79-12-26d2t02.flac
adc8607e56989ab5e8ab726c57f45efc *gd79-12-26d2t03.flac
620edb67fe54f50fb98d115527589fd2 *gd79-12-26d2t04.flac
16e9dc6e475521c070f5469583002469 *gd79-12-26d2t05.flac
41cf85fb264366c9045c1359fe4a7bd3 *gd79-12-26d2t06.flac
4adc36f0a69be5eb31020f3e5fb26aa2 *gd79-12-26d2t07.flac
5c43ac5a29c03290c57c38eaf34401c6 *gd79-12-26d3t01.flac
5ec3f90235b1e4e881196cd29ce4087c *gd79-12-26d3t02.flac
0bc36ba69375c5a13c5b711179ada726 *gd79-12-26d3t03.flac
bec364211e7363b0b3f32aaffa974c29 *gd79-12-26d3t04.flac
b2369766ab24800e99d08279ffe4b55d *gd79-12-26d3t05.flac
bc7045305cb52055283db33b119c52af *gd79-12-26d3t06.flac
0d04b7f29c42589723e19916c4da3e29 *gd79-12-26d3t07.flac
3cd5aaf89e9f49d9d891bd72f69fc7e1 *gd79-12-26d3t08.flac
b26e2023973617c979fe45bd7ec8fe24 *gd79-12-26d3t09.flac
e8845e482dd075e564c611b3efd93907 *gd79-12-26d3t10.flac
e0cf66857a23c4b07819851192d218b0 *gd79-12-26d3t11.flac

Comments
Add Comment
Other Sources (comments)
Recording by Steve Rolfe:... (0) AUD>Cm>?>Cass>MiniDisc>Samp... (1) flac16; Lineage: SBD... (2) flac16; Set 2... (0)
Date User Comment