Browse Collections Artists Sources   Search Dates

Add Show    List Management    Help


Grateful Dead 10/07/80
Warfield Theater, San Francisco, CA
Comments Add Comment    Source Collectors    Add to Collection    Add to Want List    History
Source # 89189 Other Sources
Entered by Matt Vernon
Checksums ffp , flac-md5
Disc Counts 2 / 3
Media Size
Date Circulated
Date Added
12/21/2007
12/21/2007
Source Summary flac16; Recording by Ron Ellner: Source: Master Cassette > Nakamichi 700s > Sony TC D-5M. Location: FOB either on the floor or 1st row balcony. 1st Generation copy to Teac Reel to Reel. Transfer: Pioneer RT-701 Reel to Reel > Soundblaster Soundcard > Soundforge > CD. CD Extraction with EAC > TLH > FLAC level 8. Masters Recorded by Ron Ellner and archived to Reels by Peter Mandell, the master cassettes were stolen. Transfer: Reels to PC by Mike Marino. CD Extraction by Bill Koucky. Green Mountain Bros. December 2007. 
  Archive
Source Information - Download Text | Download Zip
Grateful Dead
Warfield Theater
San Francisco, CA
October 7, 1980

Source: Master Cassette > Nakamichi 700’s > Sony TC D-5M
Location: FOB either on the floor or 1st row balcony
1st Generation copy to Teac Reel to Reel
Transfer: Pioneer RT-701 Reel to Reel > Soundblaster Soundcard > Soundforge > CD
CD Extraction with EAC > WaveLab 5.0 > TLH > FLAC level 8
Masters Recorded by Ron Ellner and archived to Reels by Peter Mandell, the master cassettes were stolen.
Transfer: Reels to PC by Mike Marino
CD Extraction by Bill Koucky
Green Mountain Bros. December 2007

Disc 1          43:49

Acoustic Set:

1. Iko-Iko
2. Dark Hollow
3. Rosalie McFall
4. Monkey & The Engineer
5. To Lay Me Down
6. Heaven Help The Fool
7. Deep Elem Blues
8. El Paso >
9. Ripple


Disc 2          77:58

1st Electric Set:

1. Cold Rain & Snow
2. Minglewood Blues
3. Loser
4. Me & My Uncle >
5. Big River
6. Althea
7. Little Red Rooster
8. Don’t Ease Me In >
9. Let It Grow >
10. Deal

2nd Electric Set:

11. Shakedown Street


Disc 3          74:25

2nd Electric Set cont:

1. Estimated Prophet >
2. He’s Gone >
3. Drums >
4. Space >
5. The Wheel >
6. Stella Blue >
7. I Need A Miracle >
8. Good Lovin’
Encore:
9. Alabama Getaway

Notes: Minor edits were made in WaveLab to remove several drop-outs of 5 miliseconds 10 miliseconds into the tracks


SHNTOOL OUTPUT:
   length     expanded size   cdr  WAVE problems filename
    4:08.55       43876604    ---   --   ---xx   gd1980-10-07d1t01.flac
    3:55.62       41599868    ---   --   ---xx   gd1980-10-07d1t02.flac
    3:16.20       34621484    ---   --   ---xx   gd1980-10-07d1t03.flac
    2:44.36       29014316    ---   --   ---xx   gd1980-10-07d1t04.flac
    8:51.07       93684908    ---   --   ---xx   gd1980-10-07d1t05.flac
    6:40.16       70597676    ---   --   ---xx   gd1980-10-07d1t06.flac
    5:38.00       59623244    ---   --   ---xx   gd1980-10-07d1t07.flac
    4:11.45       44382284    ---   --   ---xx   gd1980-10-07d1t08.flac
    4:23.35       46475564    ---   --   ---xx   gd1980-10-07d1t09.flac
    5:30.29       58280252    ---   --   ---xx   gd1980-10-07d2t01.flac
    7:18.09       77284412    ---   --   ---xx   gd1980-10-07d2t02.flac
    7:39.56       81099356    ---   --   ---xx   gd1980-10-07d2t03.flac
    3:08.24       33219692    ---   --   ---xx   gd1980-10-07d2t04.flac
    5:49.56       61695356    ---   --   ---xx   gd1980-10-07d2t05.flac
    8:00.22       84723788    ---   --   ---xx   gd1980-10-07d2t06.flac
    8:05.50       85671644    ---   --   ---xx   gd1980-10-07d2t07.flac
    3:15.66       34553276    ---   --   ---xx   gd1980-10-07d2t08.flac
   11:17.48      119535740    ---   --   ---xx   gd1980-10-07d2t09.flac
    6:57.69       73721132    ---   --   ---xx   gd1980-10-07d2t10.flac
   10:54.73      115537340    ---   --   ---xx   gd1980-10-07d2t11.flac
   12:38.00      133711244    ---   --   ---xx   gd1980-10-07d3t01.flac
   11:32.38      122158220    ---   --   ---xx   gd1980-10-07d3t02.flac
   10:29.06      110969756    ---   --   ---xx   gd1980-10-07d3t03.flac
    7:10.51       75971996    ---   --   ---xx   gd1980-10-07d3t04.flac
    6:11.60       65585564    ---   --   ---xx   gd1980-10-07d3t05.flac
    9:14.44       97829132    ---   --   ---xx   gd1980-10-07d3t06.flac
    5:04.06       53639756    ---   --   ---xx   gd1980-10-07d3t07.flac
    7:43.38       81762620    ---   --   ---xx   gd1980-10-07d3t08.flac
    4:20.67       46021628    ---   --   ---xx   gd1980-10-07d3t09.flac
  196:13.38     2076847852 B                     (totals for 29 files, 0.5907 overall compression ratio)
Show Checksums
ffp
gd1980-10-07d1t01.flac:57ce923118291da489218cb963b96d32
gd1980-10-07d1t02.flac:ec7c4580025e09a6bc0d4b6951d75fdf
gd1980-10-07d1t03.flac:200e308c5b02e0e11156bafb87e7a89e
gd1980-10-07d1t04.flac:33c9ce09a86ec70acc1e6dc6878eeafb
gd1980-10-07d1t05.flac:d4aabaf8960777609de3c90de0a460c7
gd1980-10-07d1t06.flac:399b93005f620fbb6965311e81d32989
gd1980-10-07d1t07.flac:a2a9a236b4100096111c95886679b018
gd1980-10-07d1t08.flac:efa86b18425f189e8e9006d2454799f1
gd1980-10-07d1t09.flac:1636b7757033bf53a3a1fdd8895c06be
gd1980-10-07d2t01.flac:5753613d338d3ad0a1bb075b8f17ce6e
gd1980-10-07d2t02.flac:abca38dd28dd8857ba66e79dda017455
gd1980-10-07d2t03.flac:d0f1c11e2836b2dd136845c272115bb0
gd1980-10-07d2t04.flac:4871fb2ae7d1ac6fd247e91f974dc199
gd1980-10-07d2t05.flac:b99f10a02be16a31d823ff9f5195a193
gd1980-10-07d2t06.flac:9c9a36641d1fad2f9dc8bb43ce2b4d80
gd1980-10-07d2t07.flac:b03080e549ad5141ebc41922b4849716
gd1980-10-07d2t08.flac:69d0c32283baba6d86f60ca0d1d1d677
gd1980-10-07d2t09.flac:bb84eecf0cf24e97a8a4dbed2015aec0
gd1980-10-07d2t10.flac:b3a657a64cfd75707fbbb3203b75ffa4
gd1980-10-07d2t11.flac:b671657a053a65ce925761f59c5d63a0
gd1980-10-07d3t01.flac:1f9bf2978c90c88b703662a74a96dc1a
gd1980-10-07d3t02.flac:4a4f53ad5aa3b7a10fe3817a6010d1b4
gd1980-10-07d3t03.flac:9b87e30265a03cccbce64f402c58bec4
gd1980-10-07d3t04.flac:f313ca399d522e94868d89cabe04d072
gd1980-10-07d3t05.flac:6694b345179c2386038ff0e79fc2e4ca
gd1980-10-07d3t06.flac:ec75bc210bbfc27e93748c7e75292fea
gd1980-10-07d3t07.flac:97352064287e073392b2b98fe88cb24e
gd1980-10-07d3t08.flac:e872d398a3341a5dd013c6bbf144f53c
gd1980-10-07d3t09.flac:f3d3a4bf94ed4b4186cda04a93256917
flac-md5
b09a62c376e341ec9fba9309bd67f4e6 *gd1980-10-07d1t01.flac
e3191f06eb57a91f7cbfe169122f0ecd *gd1980-10-07d1t02.flac
3651c4d8c3658c866d0d5f25a1376b66 *gd1980-10-07d1t03.flac
83f99f01bacd7560c10b12791320f47b *gd1980-10-07d1t04.flac
d6cfd88795095b67318cc79d8a3036c4 *gd1980-10-07d1t05.flac
c7dc387e1085dfdef22103e7e32f61bb *gd1980-10-07d1t06.flac
7f01365dd2937aa57ad7d13d38a54906 *gd1980-10-07d1t07.flac
a09098a35236b5d16812474376961404 *gd1980-10-07d1t08.flac
f95280dc1d5d523ece4f47283b58c8ea *gd1980-10-07d1t09.flac
6b4f979b363c0c7dd6cce5bde7866a32 *gd1980-10-07d2t01.flac
b2e70abeacc5767c49e60ba112d4f785 *gd1980-10-07d2t02.flac
5ce8b835b44b52c33546d391e11c85ec *gd1980-10-07d2t03.flac
ef7ea804b3828bc9b954f1f32e7ead79 *gd1980-10-07d2t04.flac
dd386ce4993e54ed5e9a1a08ffa586f2 *gd1980-10-07d2t05.flac
c76be65a3d1dab686fd99e61add9f9b1 *gd1980-10-07d2t06.flac
1ee1ff5090f95e0c330a13e88c4c5181 *gd1980-10-07d2t07.flac
d86d2fe0c1da2ec9aeb443b19c30bf3a *gd1980-10-07d2t08.flac
e718cad49cddf1d973e5c747f4283e81 *gd1980-10-07d2t09.flac
b1eab50b242bc91639c188c6be06915b *gd1980-10-07d2t10.flac
19c456efab309649a288174723bb89ca *gd1980-10-07d2t11.flac
1ac7cfb91b457b1c32307cb53a812dba *gd1980-10-07d3t01.flac
5816481232cb89c0fdd2e84b0023b1fb *gd1980-10-07d3t02.flac
effba2e0382555d75832c7a23959ac42 *gd1980-10-07d3t03.flac
df863a85f9cdd498918f67c7b171ed72 *gd1980-10-07d3t04.flac
58f5a97522881c4d79ef30740fbf7dd1 *gd1980-10-07d3t05.flac
3136d868845cf6b2bfb9650ddda5a26c *gd1980-10-07d3t06.flac
6f962119ee405174131134527ea35879 *gd1980-10-07d3t07.flac
0f541dcf14ddcc40ca90c981a8efc991 *gd1980-10-07d3t08.flac
6aa9a8966cc7f37007a14c55a65ad2e2 *gd1980-10-07d3t09.flac

Comments
Add Comment
Other Sources (comments)
Recording (attributed to)... (0) Source: Acoustic and... (0) SBD > Reel > Sony TCD5 >... (0)
Date User Comment
07/27/2018 [email protected] I grabbed some tracks to patch the sbd and noticed they were 1.5% fast