Browse Collections Artists Sources   Search Dates

Add Show    List Management    Help


Grateful Dead 12/27/79
Oakland Auditorium Arena, Oakland, CA
Comments Add Comment    Source Collectors    Add to Collection    Add to Want List    History
Source # 89199 Other Sources
Entered by Matt Vernon
Checksums ffp , flac-md5
Disc Counts 2 / 2
Media Size
Date Circulated
Date Added
12/22/2007
12/22/2007
Source Summary flac16; Recording by Joani Walker: Sennheiser 421 -> Cassette Master (Sony TC-158/Maxell UDXL-II90) Transfer Info: Cassette Master (Nakamichi DR-1) -> Sound Devices 744T (24bit/96k) -> Samplitude Professional v10 -> FLAC/16 All Transfers and Mastering By Charlie Miller 
  Archive
Source Information - Download Text | Download Zip
Grateful Dead - December 27, 1979
Oakland Auditorium - Oakland, CA

Recording Info:
Sennheiser 421 -> Cassette Master (Sony TC-158/Maxell UDXL-II90)

Transfer Info:
Cassette Master (Nakamichi DR-1) -> Sound Devices 744T (24bit/96k) ->
Samplitude Professional v10 -> FLAC/16
(2 Discs Audio / 2 Discs FLAC)

All Transfers and Mastering By Charlie Miller
[email protected]
December 21, 2007

Patch Info:
Nakamichi 700 -> Cassette Master -> Dat -> CD (shnid=15081) supplies:
Jam (5:32 - 5:46)

Notes:
-- Disc change is seamless
-- Recorded By Joani Walker
-- Thanks to Joani Walker and Paul Scotton for the tapes

Set 1:
d1t01 - Tuning
d1t02 - Jack Straw
d1t03 - They Love Each Other
d1t04 - Cassidy
d1t05 - Peggy-O ->
d1t06 - El Paso
d1t07 - Don't Ease Me In
d1t08 - Beat It On Down The Line
d1t09 - Deal

Set 2:
d1t10 - Tuning
d1t11 - China Cat Sunflower ->
d1t12 - I Know You Rider
d1t13 - Samson And Delilah
d2t01 - Eyes Of The World ->
d2t02 - Lost Sailor ->
d2t03 - Saint Of Circumstance ->
d2t04 - Jam ->
d2t05 - Drums ->
d2t06 - Space ->
d2t07 - Black Peter ->
d2t08 - Sugar Magnolia

Encore:
d2t09 - U.S. Blues
d2t10 - Brokedown Palace


SHNTOOL OUTPUT:
    length     expanded size   cdr  WAVE problems filename
     2:09.72       22924988    ---   --   -----   gd79-12-27d1t01.wav
     6:53.62       72999068    ---   --   -----   gd79-12-27d1t02.wav
     7:35.65       80414924    ---   --   -----   gd79-12-27d1t03.wav
     6:26.14       68123372    ---   --   -----   gd79-12-27d1t04.wav
     7:25.44       78601532    ---   --   -----   gd79-12-27d1t05.wav
     5:41.08       60171260    ---   --   -----   gd79-12-27d1t06.wav
     5:09.36       54592316    ---   --   -----   gd79-12-27d1t07.wav
     3:27.07       36531308    ---   --   -----   gd79-12-27d1t08.wav
     5:06.57       54112508    ---   --   -----   gd79-12-27d1t09.wav
     1:22.05       14476604    ---   --   -----   gd79-12-27d1t10.wav
     6:15.27       66213548    ---   --   -----   gd79-12-27d1t11.wav
     6:17.25       66561644    ---   --   -----   gd79-12-27d1t12.wav
     7:06.41       75242876    ---   --   -----   gd79-12-27d1t13.wav
    11:59.04      126841052    ---   --   -----   gd79-12-27d2t01.wav
     6:31.57       69106508    ---   --   -----   gd79-12-27d2t02.wav
     5:46.09       61055612    ---   --   -----   gd79-12-27d2t03.wav
     7:43.02       81677948    ---   --   -----   gd79-12-27d2t04.wav
     7:36.67       80596028    ---   --   -----   gd79-12-27d2t05.wav
     2:38.13       27901820    ---   --   -----   gd79-12-27d2t06.wav
    10:14.27      108373148    ---   --   -----   gd79-12-27d2t07.wav
     9:09.65       96996524    ---   --   -----   gd79-12-27d2t08.wav
     7:43.07       81689708    ---   --   -----   gd79-12-27d2t09.wav
     4:58.72       52736588    ---   --   -----   gd79-12-27d2t10.wav
   145:18.36     1537940884 B                     (totals for 23 files)
Show Checksums
ffp
gd79-12-27d1t01.flac:0fe32a22037d2362ca432f84cdd1945a
gd79-12-27d1t02.flac:ae308c6319f8f9a53206946084d0890a
gd79-12-27d1t03.flac:9097a4843031fb9415c71a4d72459be6
gd79-12-27d1t04.flac:094dff67ceeb98fb9710726fd6add1bf
gd79-12-27d1t05.flac:f534896ca00e1ae0ac49675f965a8efb
gd79-12-27d1t06.flac:9302bd58c21bbf270d371305fe833c01
gd79-12-27d1t07.flac:67f11b03e6678d5ca0d83aad8abeb5d0
gd79-12-27d1t08.flac:ce21d5dcd3c61e651b74472b57f56417
gd79-12-27d1t09.flac:749a305084eae805eeaf69ecbfdbef6f
gd79-12-27d1t10.flac:69cfb4d3a1132d5e0e7a82fc8b107047
gd79-12-27d1t11.flac:b17791007f90dffca9b2369dc8f19390
gd79-12-27d1t12.flac:e089b907333a5f27225483f28ed5f38f
gd79-12-27d1t13.flac:ea40e5202a448040c12a5a3a222a4987
gd79-12-27d2t01.flac:16337f5d6b2184c3f480ca5e0b562aa5
gd79-12-27d2t02.flac:8fd37c87a9c424ca44145aed9f5430af
gd79-12-27d2t03.flac:9db4de82da7e9a00c7799c0019793f0d
gd79-12-27d2t04.flac:2f6ed6e68ccbac7cc0c1a7ff6374d033
gd79-12-27d2t05.flac:dec03a340d3bbc44e708c6e68b216038
gd79-12-27d2t06.flac:267ba1c1d5b0dd7a99445ec79aba2a0e
gd79-12-27d2t07.flac:84d5629691f980efebcb8bddda1313d3
gd79-12-27d2t08.flac:27cd270903d2d063b5e1c65fe416668a
gd79-12-27d2t09.flac:0fb4a4c7f5b7d0ae4c77cad98cf2e269
gd79-12-27d2t10.flac:41904900672a17c456900c88e0c7975f
flac-md5
73dc751bed6a4c808a76644ebb8fbf1a *gd79-12-27d1t01.flac
b450f4124f2e638ad665447e0d58cec3 *gd79-12-27d1t02.flac
f89cf5863b72b74e61f1befc183975f2 *gd79-12-27d1t03.flac
df034a12c2f3339ea7b64300816e69d1 *gd79-12-27d1t04.flac
8907920517541032efcebc8ada50bf08 *gd79-12-27d1t05.flac
bc4717186990d2be5183d7782954f606 *gd79-12-27d1t06.flac
e26aac5872eedf4724c58b9f749cd39e *gd79-12-27d1t07.flac
78210e28f70390b7ad688fd8b5197f45 *gd79-12-27d1t08.flac
5dad32892b908af033c9b99cfa697f84 *gd79-12-27d1t09.flac
569e6acd4099329f2d15fb7ad3bfa236 *gd79-12-27d1t10.flac
cfc3c2a63fb226860dbf86cc74ceae6e *gd79-12-27d1t11.flac
4f6fde71c08cb1dda18f34a0011d4930 *gd79-12-27d1t12.flac
7d551fbff3d8d050ae365a92ea3068dd *gd79-12-27d1t13.flac
c2c0ae5d5735adc6106145502c391800 *gd79-12-27d2t01.flac
3ea19c69b06ebb28392c4f5c611eb8f4 *gd79-12-27d2t02.flac
8f6484a7ce3aaea01d7574a7e5ffad80 *gd79-12-27d2t03.flac
05925035f8c3e59803980d5504f0d34b *gd79-12-27d2t04.flac
51d25d52495f79d942e069cb1a2aad3d *gd79-12-27d2t05.flac
7489b6a37918dbfc128f7fd930b687fb *gd79-12-27d2t06.flac
f73903e13528f46d8762081732a52687 *gd79-12-27d2t07.flac
2481f59fb217bba7c008d6b2d43f6f2a *gd79-12-27d2t08.flac
e3079af88df6d52469192a703a9458ef *gd79-12-27d2t09.flac
f56be4e335ae9883e606f7554e921cd3 *gd79-12-27d2t10.flac

Comments
Add Comment
Other Sources (comments)
Recording by Steve Rolfe:... (0) Recording by Steve Rolfe:... (0) flac16; 1st Set... (0) flac16; Recording by... (0) flac16; Recorded By... (0)
Date User Comment