Browse Collections Artists Sources   Search Dates

Add Show    List Management    Help


Grateful Dead 02/12/89
Great Western LA Forum, Inglewood, CA
Comments Add Comment    Source Collectors    Add to Collection    Add to Want List    History
Source # 89200 Other Sources
Entered by Matt Vernon
Checksums ffp , flac-md5
Disc Counts 2 / 2
Media Size
Date Circulated
Date Added
12/22/2007
12/22/2007
Source Summary flac16; Recording Info: SBD -> Cassette Master -> Dat (48k) Transfer Info: Dat (Sony R500) -> Sound Devices 744T -> Samplitude Professional v10.0.1 -> FLAC All Transfers and Mastering By Charlie Miller 
  Archive
Source Information - Download Text | Download Zip
Grateful Dead - February 12, 1989
Great Western Forum - Inglewood, CA

Recording Info:
SBD -> Cassette Master -> Dat (48k)

Transfer Info:
Dat (Sony R500) -> Sound Devices 744T -> Samplitude Professional v10.0.1 -> FLAC
(2 Discs Audio / 2 Discs FLAC)

All Transfers and Mastering By Charlie Miller
[email protected]
December 22, 2007

Notes:
-- Disc change is seamless
-- * With Spencer Davis
-- ** With Bob Dylan
-- *** With kodo Drummer

Set 1:
d1t01 - Cold Rain And Snow
d1t02 - Hell In A Bucket
d1t03 - Row Jimmy
d1t04 - Beat It On Down The Line ->
d1t05 - The Promised Land
d1t06 - West L.A. Fadeaway
d1t07 - How Long Blues*
d1t08 - Gimme Some Lovin'*

Set 2:
d1t09 - Tuning
d1t10 - Iko Iko**
d1t11 - Monkey And The Engineer**
d1t12 - Alabama Getaway**
d2t01 - Dire Wolf**
d2t02 - Cassidy**
d2t03 - Stuck Inside Of Mobile With The Memphis Blues Again** ->
d2t04 - Drums ->
d2t05 - Space ->
d2t06 - The Other One*** ->
d2t07 - Stella Blue ->
d2t08 - Foolish Heart

Encore:
d2t09 - Not Fade Away** ->
d2t10 - Knockin' On Heaven's Door**


SHNTOOL OUTPUT:
    length     expanded size   cdr  WAVE problems filename
     5:49.36       61648316    ---   --   -----   gd89-02-12d1t01.wav
     9:08.34       96747212    ---   --   -----   gd89-02-12d1t02.wav
    12:03.03      127544300    ---   --   -----   gd89-02-12d1t03.wav
     3:13.58       34181660    ---   --   -----   gd89-02-12d1t04.wav
     4:57.56       52522556    ---   --   -----   gd89-02-12d1t05.wav
     9:05.45       96243884    ---   --   -----   gd89-02-12d1t06.wav
     4:40.06       49406156    ---   --   -----   gd89-02-12d1t07.wav
     8:07.71       86073836    ---   --   -----   gd89-02-12d1t08.wav
     3:20.57       35414108    ---   --   -----   gd89-02-12d1t09.wav
     7:33.39       80000972    ---   --   -----   gd89-02-12d1t10.wav
     3:31.66       37375676    ---   --   -----   gd89-02-12d1t11.wav
     5:06.16       54016076    ---   --   -----   gd89-02-12d1t12.wav
     4:17.13       45365420    ---   --   -----   gd89-02-12d2t01.wav
     7:22.09       77990012    ---   --   -----   gd89-02-12d2t02.wav
     8:18.73       88018940    ---   --   -----   gd89-02-12d2t03.wav
    10:16.70      108827084    ---   --   -----   gd89-02-12d2t04.wav
     8:27.31       89507756    ---   --   -----   gd89-02-12d2t05.wav
     6:16.14       66359372    ---   --   -----   gd89-02-12d2t06.wav
     7:50.21       82957436    ---   --   -----   gd89-02-12d2t07.wav
     8:01.18       84890780    ---   --   -----   gd89-02-12d2t08.wav
     8:36.21       91071836    ---   --   -----   gd89-02-12d2t09.wav
     7:34.18       80127980    ---   --   -----   gd89-02-12d2t10.wav
   153:39.25     1626291368 B                     (totals for 22 files)
Show Checksums
ffp
gd89-02-12d1t01.flac:96a09d85b9a759ade0a7db54ae1c8ebe
gd89-02-12d1t02.flac:f36cb8d2a497533653fcb0f70c390382
gd89-02-12d1t03.flac:39aee349b4d1e8e4e7034d7fef2658d9
gd89-02-12d1t04.flac:ffb6007829154ce849ad765a6135273e
gd89-02-12d1t05.flac:24cb2910f83a3b66e849d54882d25258
gd89-02-12d1t06.flac:ac8b40f9f643317aeeeaa2d2affa59d2
gd89-02-12d1t07.flac:7734e8333894ec4488f6ec9897bc2b53
gd89-02-12d1t08.flac:0c04182c4916ff3c5f700feb52652f64
gd89-02-12d1t09.flac:3fa3e45ee269bd76cbfaeb1a6343f9bd
gd89-02-12d1t10.flac:802540ba5d3927ca11aea624b6a62b02
gd89-02-12d1t11.flac:a653cdb0868d1159bcad10095cabc853
gd89-02-12d1t12.flac:771cc3d80f045b5397bba5bb662bcefc
gd89-02-12d2t01.flac:5a6f407e1319775582f4ffe1475ae467
gd89-02-12d2t02.flac:d63158fc1a313f347539453c97fbc28d
gd89-02-12d2t03.flac:862822c01a0064c086fa7f52f59aea63
gd89-02-12d2t04.flac:2439e8eaf93576b500ad9ffe9703e689
gd89-02-12d2t05.flac:7fafa2935feaa131448e9ad0ce39a25f
gd89-02-12d2t06.flac:429c5b14727aa3c91a561756bdd435a9
gd89-02-12d2t07.flac:2b56f37542308b4b5f26ff163167fab5
gd89-02-12d2t08.flac:13fa36ea296bd4c63375894d70bc0b05
gd89-02-12d2t09.flac:63d242eba9abb9a957567ff328546d92
gd89-02-12d2t10.flac:2746046c11441e3b70de05e5bad0b3ed
flac-md5
9e21e89ad27d38c9db429e5a3acb48b8 *gd89-02-12d1t01.flac
71ed1a88522b7ddcd6f17476dbf4231c *gd89-02-12d1t02.flac
60bdd1c63eddf363d292a739a13b9886 *gd89-02-12d1t03.flac
e9bdfc59fbd3c39eac281794808de5b7 *gd89-02-12d1t04.flac
7302275a36e696fed1788766acb69416 *gd89-02-12d1t05.flac
d07cebea089d8d74437df119b17c8442 *gd89-02-12d1t06.flac
e9fa598f3e5d1eecba0ee6993cdc5570 *gd89-02-12d1t07.flac
44d59cb8f65388b72a2d4ef320bc6a54 *gd89-02-12d1t08.flac
36a67997a133243ba9ce1723054afe48 *gd89-02-12d1t09.flac
6aad7fcba58699d12a101df1acf65a19 *gd89-02-12d1t10.flac
48d2f1a2cf7cc7e44beebf2de1637845 *gd89-02-12d1t11.flac
637bac6ce67b16e3535a4e1fd7d52a7e *gd89-02-12d1t12.flac
f272ca1b5909eb6b74ce5377991d1ca4 *gd89-02-12d2t01.flac
3fe25de474f51108c34efb195c840bcd *gd89-02-12d2t02.flac
0a6ccca13beccd6405b24329f65464ee *gd89-02-12d2t03.flac
e39b700538142c96d1b7712777ede7d0 *gd89-02-12d2t04.flac
3b35871ee516835d7af1a99e47a573d4 *gd89-02-12d2t05.flac
39bfc7658ef2d2e17918d1fa88b75753 *gd89-02-12d2t06.flac
109aa77afa42a7045786900d69965da4 *gd89-02-12d2t07.flac
fab323ae2bba34a93c81125d0c611083 *gd89-02-12d2t08.flac
9aaed1b5edbc314de05f019874daff51 *gd89-02-12d2t09.flac
ef568d77a6197931d942f818698de8f5 *gd89-02-12d2t10.flac

Comments
Add Comment
Other Sources (comments)
SBD; via Mike Lai (2) SBD> MC> DAT> CD> SHN (5) flac24; Sean Weber... (0) flac16; Sean Weber... (1) flac16; AT835B's- AT... (0) flac24; Recording... (0) flac16; Recording... (0) flac16; Set 1 Source... (0) flac16; Matrix 2... (0) DTS-Audio-CD 5.1... (0) flac16/48kHz; 5.1... (0) flac16; Recording... (0)
Date User Comment