Browse Collections Artists Sources   Search Dates

Add Show    List Management    Help


Garcia 11/06/81
Capitol Theater, Passaic, NJ
Comments Add Comment    Source Collectors    Add to Collection    Add to Want List    History
Source # 89217 Other Sources
Entered by Joe Jupille
Checksums ffp , md5
Disc Counts 1 / 1
Media Size
Date Circulated
Date Added
12/24/2007
12/25/2007
Source Summary JGB, partial Late Show: Nakamichi CM-300's > Sony TC-D5, recorded FOB, by unknown taper. Lineage: Unknown MAC > CDR transfer. CDR > EAC > WavMerge > Soundforge > CD-Wave > TLH > FLAC 
Source Information - Download Text | Download Zip
JERRY GARCIA BAND
Capitol Theater
Passaic NJ
11-06-1981
Late Show, Partial

01 crowd & tuning
02 I'll Take a Melody
03 How Sweet It Is
04 Mission in the Rain
05 Love in the Afternoon
06 Mystery Train
-- set break --
07 The Harder They Come

Missing songs from end of the show:
Valerie
The Night They Drove Old Dixie Down
Tangled Up In Blue

AUD: Nakamichi CM-300's > Sony TC-D5, recorded FOB, by unknown taper.
Lineage: Unknown MAC > CDR transfer. CDR > EAC > WavMerge > Soundforge >
CD-Wave > TLH > FLAC. December 2007.

Notes: Thanks to Jon Pasternak for the CDR. The disc was labelled only
"FOB 300s>D5". Hopefully the rest of this great recording will surface...
Soundforge used to make fades, WavMerge and CD-wave for new Track-ID's,
and TLH for SBE-OK, FLAC compression, and checksums.      ****Enjoy***

shntool

    length     expanded size   cdr  WAVE problems filename
     0:36.10        6373964    ---   --   ---xx   jgb1981-11-06b.t01.flac
    13:58.02      147827948    ---   --   ---xx   jgb1981-11-06b.t02.flac
     8:06.68       85890380    ---   --   ---xx   jgb1981-11-06b.t03.flac
    13:53.15      146976524    ---   --   ---xx   jgb1981-11-06b.t04.flac
     8:41.05       91916204    ---   --   ---xx   jgb1981-11-06b.t05.flac
     8:52.05       93856604    ---   --   ---xx   jgb1981-11-06b.t06.flac
    11:22.41      120401276    ---   --   ---xx   jgb1981-11-06b.t07.flac
    65:29.71      693242900 B                     (totals for 7 files, 0.6354 overall compression ratio)

There were no sector boundary errors.
Show Checksums
ffp
jgb1981-11-06b.t01.flac:f58e0c823cb044084b96a984266ff427
jgb1981-11-06b.t02.flac:262abcacce6e39a98a9ff780fb842ea6
jgb1981-11-06b.t03.flac:55f43aa057256ad2a0da3b2895a60e37
jgb1981-11-06b.t04.flac:fb1216e8c4b170c1559adbd7f75e81ee
jgb1981-11-06b.t05.flac:d260ab93ff8fc3b5fc9111e42694755d
jgb1981-11-06b.t06.flac:470bf51021ff62a6490fbb55c124de76
jgb1981-11-06b.t07.flac:f70bf9ec6e6c5f74556384fd67ca0239
md5
af1965dfe0276c8c743642747ee8a688 *jgb1981-11-06b.t01.flac
af885b3c8ab19be3ee54cc792e2edbc7 *jgb1981-11-06b.t02.flac
6d20a9c9f4d91e77030481c7e5999d98 *jgb1981-11-06b.t03.flac
ba7b61870ca622ca864dfe50a706e949 *jgb1981-11-06b.t04.flac
946a3a6b4ce8eb5fdf49e4172a6484e2 *jgb1981-11-06b.t05.flac
2b9720940b24de16969b559aa8c4c262 *jgb1981-11-06b.t06.flac
5eba4e205c4ac2cc52d03be3c0473213 *jgb1981-11-06b.t07.flac

Comments
Add Comment
Date User Comment