Browse Collections Artists Sources   Search Dates

Add Show    List Management    Help


Grateful Dead 12/30/79
Oakland Auditorium Arena, Oakland, CA
Comments Add Comment    Source Collectors    Add to Collection    Add to Want List    History
Source # 89259 Other Sources
Entered by Matt Vernon
Checksums ffp , flac-md5
Disc Counts 2 / 2
Media Size
Date Circulated
Date Added
12/28/2007
12/28/2007
Source Summary flac16; Recording by Joani Walker: Sennheiser 421 -> Cassette Master (Sony TC-158/Maxell UDXL-II90) Transfer Info: Cassette Master (Nakamichi DR-1) -> Sound Devices 744T (24bit/96k) -> Samplitude Professional v10.0.1 -> FLAC/16 All Transfers and Mastering By Charlie Miller 
  Archive
Source Information - Download Text | Download Zip
Grateful Dead - December 30, 1979
Oakland Auditorium - Oakland, CA

Recording Info:
Sennheiser 421 -> Cassette Master (Sony TC-158/Maxell UDXL-II90)

Transfer Info:
Cassette Master (Nakamichi DR-1) -> Sound Devices 744T (24bit/96k) ->
Samplitude Professional v10.0.1 -> FLAC/16
(2 Discs Audio / 2 Discs FLAC)

All Transfers and Mastering By Charlie Miller
[email protected]
December 27, 2007

Patch Info:
Nakamichi 700 -> Cassette Master -> Dat -> CD supplies:
Drums (4:35 - 5:02)

Notes:
-- Encore on end of 1st Set to fit show onto 2 discs
-- Seamless disc change between Set 2 and Encore
-- Recorded By Joani Walker
-- Patch source recorded by Steve Rolfe
-- Thanks to Joani Walker and Paul Scotton for the tapes

Set 1:
d1t01 - Tuning
d1t02 - New Minglewood Blues
d1t03 - Candyman
d1t04 - Me And My Uncle ->
d1t05 - Big River
d1t06 - Ramble On Rose
d1t07 - Lazy Lightnin' ->
d1t08 - Supplication ->
d1t09 - Deal

Set 2:
d2t01 - Tuning
d2t02 - Scarlet Begonias ->
d2t03 - Fire On The Mountain ->
d2t04 - Let It Grow ->
d2t05 - Drums ->
d2t06 - Space ->
d2t07 - Truckin' ->
d2t08 - Wharf Rat ->
d2t09 - Around And Around ->
d2t10 - Johnny B. Goode

Encore:
d1t10 - Crowd/Tuning
d1t11 - Don't Ease Me In
d1t12 - Brokedown Palace


SHNTOOL OUTPUT:
    length     expanded size   cdr  WAVE problems filename
     1:37.32       17186108    ---   --   -----   gd79-12-30d1t01.wav
     9:40.38      102401420    ---   --   -----   gd79-12-30d1t02.wav
     7:17.21       77136236    ---   --   -----   gd79-12-30d1t03.wav
     3:03.47       32391788    ---   --   -----   gd79-12-30d1t04.wav
     6:22.56       67516556    ---   --   -----   gd79-12-30d1t05.wav
     8:42.49       92196092    ---   --   -----   gd79-12-30d1t06.wav
     3:26.18       36380780    ---   --   -----   gd79-12-30d1t07.wav
     5:51.27       61979948    ---   --   -----   gd79-12-30d1t08.wav
     5:31.35       58470764    ---   --   -----   gd79-12-30d1t09.wav
     0:56.43        9979580    ---   --   -----   gd79-12-30d1t10.wav
     5:35.39       59185772    ---   --   -----   gd79-12-30d1t11.wav
     5:36.49       59385692    ---   --   -----   gd79-12-30d1t12.wav
     0:42.26        7469996    ---   --   -----   gd79-12-30d2t01.wav
    10:00.29      105908252    ---   --   -----   gd79-12-30d2t02.wav
     9:50.51      104195996    ---   --   -----   gd79-12-30d2t03.wav
    13:20.50      141237644    ---   --   -----   gd79-12-30d2t04.wav
     8:05.05       85565804    ---   --   -----   gd79-12-30d2t05.wav
     6:28.25       68502044    ---   --   -----   gd79-12-30d2t06.wav
     7:00.63       74236220    ---   --   -----   gd79-12-30d2t07.wav
     9:32.36      100985516    ---   --   -----   gd79-12-30d2t08.wav
     4:13.45       44735084    ---   --   -----   gd79-12-30d2t09.wav
     4:51.18       51374780    ---   --   -----   gd79-12-30d2t10.wav
   137:47.52     1458422072 B                     (totals for 22 files)
Show Checksums
ffp
gd79-12-30d1t01.flac:5ae6a7ece4c548c3f07803314f0c99ee
gd79-12-30d1t02.flac:a74e0ac5537f0636bef15130f4545c3e
gd79-12-30d1t03.flac:7cce67ef35b1bb804b6fbfce78aa9cf9
gd79-12-30d1t04.flac:3bd5ff5e1caa007ebf68aba5fe42024a
gd79-12-30d1t05.flac:b1c99863365b969ac5e1301efbb9b207
gd79-12-30d1t06.flac:375333f25c712ee18fe7ba2b9f463329
gd79-12-30d1t07.flac:5990b4af79c0702e1841f380cf53fd0f
gd79-12-30d1t08.flac:3a44125876d6503feff5b5f0494b3329
gd79-12-30d1t09.flac:6fd1e242706f58ea491c46eb61069064
gd79-12-30d1t10.flac:c67fa632480e633f9587ee8920c17fae
gd79-12-30d1t11.flac:1910bf36e99ca25b4ceb500f62e5b6fd
gd79-12-30d1t12.flac:d38c44ca79efbeab62e1cd5db807c8f7
gd79-12-30d2t01.flac:950e35147eaea1a2cb1e503550fcf532
gd79-12-30d2t02.flac:0bb35a36305e032af0951c72e18f8a11
gd79-12-30d2t03.flac:8a815ab0ada472d062daf2a35b613169
gd79-12-30d2t04.flac:ce862334bc6890c93288960260547177
gd79-12-30d2t05.flac:f99ee047c6cf2e0308f71896fea3ef94
gd79-12-30d2t06.flac:5793da1ab3ffce6cf3aaf7149f486582
gd79-12-30d2t07.flac:d217d53e25995704bf87144f00a8854a
gd79-12-30d2t08.flac:d1473d6b0203c35126313c3029565027
gd79-12-30d2t09.flac:b16a2ec97aea396e5f93e5f5c9ed4d18
gd79-12-30d2t10.flac:f330ce4da08e399e592c554feca4a7db
flac-md5
56261ae112c16438f780e27364a6208c *gd79-12-30d1t01.flac
324e5fa609323ca7e86accf16001cdb7 *gd79-12-30d1t02.flac
5a3118287e70ae9fdb43948e6b74f8ec *gd79-12-30d1t03.flac
cd0f8ef5eff04273c2e0f5ddfd1b508c *gd79-12-30d1t04.flac
85ccad62a2bf03ba1303a940b69d755c *gd79-12-30d1t05.flac
abc0b78f4a8026cd4b1da05763a5b799 *gd79-12-30d1t06.flac
295c36f1d4dc1cf0780c762a19d396d1 *gd79-12-30d1t07.flac
85d207c303c5cf27add8f3af6bcfb630 *gd79-12-30d1t08.flac
e6a9d71fc92f9bf34b2b878a1d707b94 *gd79-12-30d1t09.flac
10324b9da4289a5fedf98fd5608f0128 *gd79-12-30d1t10.flac
a66c06b7b2de000b928243b938e5315d *gd79-12-30d1t11.flac
8e4cbb76091afc7fef7ce87a7dd7cb54 *gd79-12-30d1t12.flac
6aa517bf9ecc7667d67ffddf8e3f9fc9 *gd79-12-30d2t01.flac
4e6377dd3a317747aaaa696979985ef3 *gd79-12-30d2t02.flac
90246440a903acb9915fa9ab8ba48a1c *gd79-12-30d2t03.flac
c5d19063b73c820032be2fa16fd2b9d6 *gd79-12-30d2t04.flac
c6d025262133495a88465ea0603de2b7 *gd79-12-30d2t05.flac
f9cad851e32ddbd11f7e992e96076de9 *gd79-12-30d2t06.flac
a6503ef77c357268e936e209f7726911 *gd79-12-30d2t07.flac
a2af89791afd0fcd58b3d229a5567ea4 *gd79-12-30d2t08.flac
66788eecd1bfab07ad09f238018d9364 *gd79-12-30d2t09.flac
e9d90bcd6484c7890e9b20c9ac2ed7da *gd79-12-30d2t10.flac

Comments
Add Comment
Other Sources (comments)
SBD> MC> DAT> CD (except... (1) Recording by Steve Rolfe:... (0) flac16;... (1) flac16; Recorded by... (0)
Date User Comment