Browse Collections Artists Sources   Search Dates

Add Show    List Management    Help


Grateful Dead 12/26/80
Oakland Auditorium Arena, Oakland, CA
Comments Add Comment    Source Collectors    Add to Collection    Add to Want List    History
Source # 89260 Other Sources
Entered by Matt Vernon
Checksums ffp , flac-md5
Disc Counts 2 / 2
Media Size
Date Circulated
Date Added
12/28/2007
12/28/2007
Source Summary flac16; Recording by Joani Walker: Nakamichi 300/CP1 -> Cassette Master (Sony D5M/Maxell UDXL-II90) Transfer Info: Cassette Master (Nakamichi DR-1) -> Sound Devices 744T (24bit/96k) -> Samplitude Professional v10.0.1 -> FLAC/16 All Transfers and Mastering By Charlie Miller 
  Archive
Source Information - Download Text | Download Zip
Grateful Dead - December 26, 1980
Oakland Auditorium - Oakland, CA

Recording Info:
Nakamichi 300/CP1 -> Cassette Master (Sony D5M/Maxell UDXL-II90)

Transfer Info:
Cassette Master (Nakamichi DR-1) -> Sound Devices 744T (24bit/96k) ->
Samplitude Professional v10.0.1 -> FLAC/16
(3 Discs Audio / 2 Discs FLAC)

All Transfers and Mastering By Charlie Miller
[email protected]
December 27, 2007

Notes:
-- Set 2 is seamless
-- Recorded By Joani Walker
-- Thanks to Paul Scotton and Joani Walker for the tapes

Set 1:
d1t01 - Tuning
d1t02 - Alabama Getaway ->
d1t03 - The Promised Land
d1t04 - They Love Each Other
d1t05 - C C Rider
d1t06 - Althea
d1t07 - Cassidy
d1t08 - Peggy-O
d1t09 - Lost Sailor ->
d1t10 - Saint Of Circumstance ->
d1t11 - Deal

Set 2:
d2t01 - Tuning
d2t02 - Scarlet Begonias ->
d2t03 - Fire On The Mountain
d2t04 - Samson And Delilah
d2t05 - Ship Of Fools
d3t01 - Spanish Jam tease
d3t02 - Playing In The Band ->
d3t03 - Drums ->
d3t04 - Space ->
d3t05 - Not Fade Away ->
d3t06 - Black Peter ->
d3t07 - Around And Around ->
d3t08 - Good Lovin'

Encore:
d3t09 - U.S. Blues


SHNTOOL OUTPUT:
    length     expanded size   cdr  WAVE problems filename
     0:51.44        9099932    ---   --   -----   gd80-12-26d1t01.wav
     4:26.50       47040044    ---   --   -----   gd80-12-26d1t02.wav
     4:20.30       45934604    ---   --   -----   gd80-12-26d1t03.wav
     7:16.19       76955132    ---   --   -----   gd80-12-26d1t04.wav
     7:47.21       82428236    ---   --   -----   gd80-12-26d1t05.wav
     8:40.50       91845644    ---   --   -----   gd80-12-26d1t06.wav
     5:11.53       54985100    ---   --   -----   gd80-12-26d1t07.wav
     7:23.59       78284012    ---   --   -----   gd80-12-26d1t08.wav
     6:14.57       66107708    ---   --   -----   gd80-12-26d1t09.wav
     6:11.65       65597324    ---   --   -----   gd80-12-26d1t10.wav
     7:56.30       84037004    ---   --   -----   gd80-12-26d1t11.wav
     1:06.23       11696540    ---   --   -----   gd80-12-26d2t01.wav
     8:31.11       90166316    ---   --   -----   gd80-12-26d2t02.wav
     9:57.60      105451964    ---   --   -----   gd80-12-26d2t03.wav
     7:26.72       78843788    ---   --   -----   gd80-12-26d2t04.wav
     8:37.71       91365836    ---   --   -----   gd80-12-26d2t05.wav
     0:51.71        9163436    ---   --   -----   gd80-12-26d3t01.wav
    15:15.03      161413100    ---   --   -----   gd80-12-26d3t02.wav
     8:01.65       85001324    ---   --   -----   gd80-12-26d3t03.wav
     2:56.18       31088780    ---   --   -----   gd80-12-26d3t04.wav
     9:16.24       98134892    ---   --   -----   gd80-12-26d3t05.wav
     9:07.38       96580220    ---   --   -----   gd80-12-26d3t06.wav
     3:42.30       39231404    ---   --   -----   gd80-12-26d3t07.wav
     8:11.12       86640668    ---   --   -----   gd80-12-26d3t08.wav
     5:30.42       58310828    ---   --   -----   gd80-12-26d3t09.wav
   164:54.43     1745403836 B                     (totals for 25 files)
Show Checksums
ffp
gd80-12-26d1t01.flac:3f278fe2d7aa5f588933c43495365db0
gd80-12-26d1t02.flac:68c857443bdb53e75987a2e536effe8e
gd80-12-26d1t03.flac:d96c2d92c8e6437e65de1ad2921a6831
gd80-12-26d1t04.flac:3c1a40c2d1cd5f076f371bb510d47da2
gd80-12-26d1t05.flac:1d53052e2bc47a4b48576a63ae3fac95
gd80-12-26d1t06.flac:3c02ffd197db7e92c47d68c98d98476b
gd80-12-26d1t07.flac:df520943a61e02a73854bfdbfd462036
gd80-12-26d1t08.flac:6a3d1259c28e782944f949058de78daf
gd80-12-26d1t09.flac:761f0991b78ee41bc27b327a863c2a22
gd80-12-26d1t10.flac:97ac84e2478929149e13ed6d90748622
gd80-12-26d1t11.flac:4aaae8a1c99a112eba735959082d5e1a
gd80-12-26d2t01.flac:c0b7c90b4509f76da13b785b83eaebcb
gd80-12-26d2t02.flac:d7b8bb883e44aad201a1356f8de858f4
gd80-12-26d2t03.flac:1c993cdd4608ff3230c867b7cafc3179
gd80-12-26d2t04.flac:8070e6a0f4be94cef541b7ec5f48d172
gd80-12-26d2t05.flac:a89081985dcf0c245166824011624727
gd80-12-26d3t01.flac:e70ada749ef28c61c2bc44f9e37f4e44
gd80-12-26d3t02.flac:4abb84992f49043b20d18660e1eaae08
gd80-12-26d3t03.flac:bcbe86610efdd4c9cabb6e27cc866824
gd80-12-26d3t04.flac:b4eb4c457d8731fa39314f97a2d44a75
gd80-12-26d3t05.flac:e03c97d7c512c5c404e6586336364124
gd80-12-26d3t06.flac:8b539e40f83d7e2ee2e9ff272020afc3
gd80-12-26d3t07.flac:889a38aa53c10f930552a0d08f504c35
gd80-12-26d3t08.flac:121c2e8b8e1a6c74833e47bea2a41498
gd80-12-26d3t09.flac:cc055aea2da70438ca34f95a9fe64f6a
flac-md5
457dd278ef2457bd7393d6f3e75f1be0 *gd80-12-26d1t01.flac
9585ae66482a0b3e132b9ff1081c25f8 *gd80-12-26d1t02.flac
fabc9c9828e9f69ceb05de79bd2c3832 *gd80-12-26d1t03.flac
a36b8d7b85792285d98b6bf2f411adf4 *gd80-12-26d1t04.flac
8643f6b3d8f4c45c8f1db571c253863d *gd80-12-26d1t05.flac
a0132a4a51f92c0da79d3696f6db4ba6 *gd80-12-26d1t06.flac
f687acef8d9df61f8cd8f1f85ec91ddf *gd80-12-26d1t07.flac
62ad28b64025da10ebb6b1a62460734b *gd80-12-26d1t08.flac
ee6c55ba0dea216e6bb79d1ca31c350e *gd80-12-26d1t09.flac
d00fdd9ac52449fefd25e7340cc3b68d *gd80-12-26d1t10.flac
400b8d0ea54a61974e4ba095d33274e6 *gd80-12-26d1t11.flac
86ac69ca67e6da262f21a6cb15f5a5ef *gd80-12-26d2t01.flac
3c72b5ade48229a65f875d94706f4017 *gd80-12-26d2t02.flac
6ecf4e3b0d4bdc692e6fe7d13dba7f1f *gd80-12-26d2t03.flac
4171b3feddca83d97ebbf8c922bdf1e9 *gd80-12-26d2t04.flac
db3eabfc225846f1fb9a4a047a3a4c1d *gd80-12-26d2t05.flac
0e0e0988628148d2ee8c6a19974e0081 *gd80-12-26d3t01.flac
5630ccd3f581494fd6eaa1450dedc964 *gd80-12-26d3t02.flac
d6f4b5cacb727828660279902ee43532 *gd80-12-26d3t03.flac
265a8a635dee400d6a5b8186c1fe36b2 *gd80-12-26d3t04.flac
823d4b6b7f95435078e93ad10a5468d8 *gd80-12-26d3t05.flac
2e5aeccca0278f6acda3803478027cda *gd80-12-26d3t06.flac
581e464922d5891bd70c4c65b179a977 *gd80-12-26d3t07.flac
d2346b13e5e172fcec5b1cca81ef1836 *gd80-12-26d3t08.flac
47cc0c03ec297415d58ff180f1b9cea8 *gd80-12-26d3t09.flac

Comments
Add Comment
Other Sources (comments)
Recording by Joani Walker:... (0) MSR>C>DAT>WAV>SHN w/ Aud... (0) flac16; Recording by... (0) flac16;... (1) flac16; Matrix 3... (1) DTS-Audio-CD 5.1... (1) flac24; Recorded... (0)
Date User Comment