Browse Collections Artists Sources   Search Dates

Add Show    List Management    Help


Grateful Dead 12/27/80
Oakland Auditorium Arena, Oakland, CA
Comments Add Comment    Source Collectors    Add to Collection    Add to Want List    History
Source # 89269 Other Sources
Entered by Matt Vernon
Checksums ffp , flac-md5
Disc Counts 2 / 3
Media Size
Date Circulated
Date Added
12/28/2007
12/29/2007
Source Summary flac16; Recording by Joani Walker: Nakamichi 300/CP4 -> Cassette Master (Sony D5M/Maxell UDXL-II90) Transfer Info: Cassette Master (Nakamichi DR-1) -> Sound Devices 744T (24bit/96k) -> Samplitude Professional v9.12 -> FLAC/16 All Transfers and Mastering By Charlie Miller 
  Archive
Source Information - Download Text | Download Zip
Grateful Dead - December 27, 1980
Oakland Auditorium - Oakland, CA

Recording Info:
Nakamichi 300/CP4 -> Cassette Master (Sony D5M/Maxell UDXL-II90)

Transfer Info:
Cassette Master (Nakamichi DR-1) -> Sound Devices 744T (24bit/96k) ->
Samplitude Professional v9.12 -> FLAC/16
(3 Discs Audio / 2 Discs FLAC)

All Transfers and Mastering By Charlie Miller
[email protected]
December 10, 2007

Notes:
-- Set 2 is seamless
-- Recorded By Joani Walker
-- Thanks to Paul Scotton and Joani Walker for the tapes
-- Tape flip during Drums
-- Encore is 1st Gen dub from Joani's master

Set 1:
d1t01 - Tuning
d1t02 - Feel Like A Stranger
d1t03 - Sugaree ->
d1t04 - New Minglewood Blues
d1t05 - Loser
d1t06 - Looks Like Rain
d1t07 - Tennessee Jed
d1t08 - Passenger
d1t09 - It Must Have Been The Roses
d1t10 - The Music Never Stopped

Set 2:
d2t01 - China Cat Sunflower ->
d2t02 - I Know You Rider
d2t03 - Estimated Prophet ->
d2t04 - Eyes Of The World ->
d2t05 - Drums ->
d3t01 - Space ->
d3t02 - The Wheel ->
d3t03 - Truckin' ->
d3t04 - Wharf Rat ->
d3t05 - Goin' Down The Road Feeling Bad ->
d3t06 - One More Saturday Night

Encore:
d3t07 - Johnny B. Goode


SHNTOOL OUTPUT:
    length     expanded size   cdr  WAVE problems filename
     1:36.60       17075564    ---   --   -----   gd80-12-27d1t01.wav
     9:18.16       98468876    ---   --   -----   gd80-12-27d1t02.wav
    12:40.16      134101676    ---   --   -----   gd80-12-27d1t03.wav
     7:17.45       77192684    ---   --   -----   gd80-12-27d1t04.wav
     8:21.25       88435244    ---   --   -----   gd80-12-27d1t05.wav
     8:04.04       85387052    ---   --   -----   gd80-12-27d1t06.wav
    10:13.71      108300236    ---   --   -----   gd80-12-27d1t07.wav
     4:58.02       52571948    ---   --   -----   gd80-12-27d1t08.wav
     6:23.74       67735292    ---   --   -----   gd80-12-27d1t09.wav
     8:26.49       89373692    ---   --   -----   gd80-12-27d1t10.wav
     6:13.11       65823116    ---   --   -----   gd80-12-27d2t01.wav
     5:54.58       62582060    ---   --   -----   gd80-12-27d2t02.wav
    11:10.67      118345628    ---   --   -----   gd80-12-27d2t03.wav
    15:44.49      166636892    ---   --   -----   gd80-12-27d2t04.wav
     6:54.22       73081388    ---   --   -----   gd80-12-27d2t05.wav
     4:23.44       46496732    ---   --   -----   gd80-12-27d3t01.wav
     6:09.15       65126924    ---   --   -----   gd80-12-27d3t02.wav
     7:49.60       82872764    ---   --   -----   gd80-12-27d3t03.wav
     9:39.60      102276764    ---   --   -----   gd80-12-27d3t04.wav
     7:03.41       74713676    ---   --   -----   gd80-12-27d3t05.wav
     4:38.55       49168604    ---   --   -----   gd80-12-27d3t06.wav
     4:25.05       46757804    ---   --   -----   gd80-12-27d3t07.wav
   167:28.24     1772524616 B                     (totals for 22 files)
Show Checksums
ffp
gd80-12-27d1t01.flac:031bc897afd4c76956406196e7ca1067
gd80-12-27d1t02.flac:c20b9b83ca3c777d144c0817b256de31
gd80-12-27d1t03.flac:3874861ad313f23e6925fdf23a4ce3ff
gd80-12-27d1t04.flac:ef235229cbd41d17908bdd9599fe1acf
gd80-12-27d1t05.flac:e6e553d1fc3a25b0a12a0e2550b1d317
gd80-12-27d1t06.flac:024f3958ef148a52c88ccbf54cdab85c
gd80-12-27d1t07.flac:3ecf9f3d094619fa59c3adc1285f9e4e
gd80-12-27d1t08.flac:5853d57390637546d26749cdf6fa3043
gd80-12-27d1t09.flac:3008ab60a826989c5b901e00803f9e9a
gd80-12-27d1t10.flac:9f88927c637038c2b13c7f2943fcfdeb
gd80-12-27d2t01.flac:e092866f10fec491c5ebacae33024e39
gd80-12-27d2t02.flac:85316fd5d3c8901a64a03ce7f874ff7b
gd80-12-27d2t03.flac:1bcd22e279fd482c40a3613ce7c319e0
gd80-12-27d2t04.flac:2dc9bfdeb4d978ba64852f7fe2341438
gd80-12-27d2t05.flac:6399f03825f63c8476ace829a37e15c3
gd80-12-27d3t01.flac:b82fb7f8d985d8322e1ccdabd1aecb16
gd80-12-27d3t02.flac:4a06c696ed7fb4c11d297a26904184c5
gd80-12-27d3t03.flac:575a9558d9305a4fe38b23268ddf42f8
gd80-12-27d3t04.flac:721c86cb432d958ac82ded4faf0ae8f7
gd80-12-27d3t05.flac:601862dc1730f0ef77454ead2c83a404
gd80-12-27d3t06.flac:e835d342a4b1b823e2c321ddb6186685
gd80-12-27d3t07.flac:ffb8ba9090e5929d5160530385152de6
flac-md5
65a0ef00c000bb332988773997363bb7 *gd80-12-27d1t01.flac
63c28488cd8fb18e7d780d97d13f18b2 *gd80-12-27d1t02.flac
7c91263a60e1b95c008d8ec1b0df5788 *gd80-12-27d1t03.flac
8876581b4e1e95c619361c142d3f8e38 *gd80-12-27d1t04.flac
2dc4d62b87c7a889a75ecf1df710e2b2 *gd80-12-27d1t05.flac
c95686bbd07787523db78bce8a5ba778 *gd80-12-27d1t06.flac
4bdcbacfa0174e700eb1692e8d2b6cd5 *gd80-12-27d1t07.flac
62de9f3894ddf79a97923f3367708090 *gd80-12-27d1t08.flac
5a9eeff6735ea384e0ca3b2e6b5f4b50 *gd80-12-27d1t09.flac
9a1da2f3d88e42b697c648024ec26cbb *gd80-12-27d1t10.flac
6cc41ee7c4c0d229ae84b82e2ead6fcd *gd80-12-27d2t01.flac
166b64574fc2a20ce17a7eabce11f3ba *gd80-12-27d2t02.flac
fb7088c9cd27537c09e07e24a5615bf4 *gd80-12-27d2t03.flac
953410bf992fc031ef36c3b3372a8709 *gd80-12-27d2t04.flac
ad8903b46968af65dbda1ca934107f97 *gd80-12-27d2t05.flac
eff9ed42fb7087ffac609574b7d03776 *gd80-12-27d3t01.flac
a9b3a8aa432f4246eb48a55e3919038e *gd80-12-27d3t02.flac
66c830ce14e14ebee511ab222225352d *gd80-12-27d3t03.flac
a407405360a6c52590ec62f8795879fd *gd80-12-27d3t04.flac
9003fef35c61b8edb8fee8a128102c8c *gd80-12-27d3t05.flac
c6ac7210f5e3396f68ca123baff7a651 *gd80-12-27d3t06.flac
24add6e015b8eebd9e42d3aca78ef8af *gd80-12-27d3t07.flac

Comments
Add Comment
Other Sources (comments)
SBD; via Stewart McCloskey... (0) MSR>C>DAT>WAV>SHN;... (2) flac16; Recording... (0) flac24; Sony TCD-5M... (0) flac16; Soundboard,... (0) flac16; Fix of... (0) flac16; Source Info:... (0)
Date User Comment